.
Авторизация | Регистрация
Хочешь лучшие торренты? Добавь свой email!
Добавить

Торрент скачать бесплатно

» » И на камнях растут деревья (1985) DVD9 [hand made remastered] торрент скачать бесплатно




    И на камнях растут деревья (1985) DVD9 [hand made remastered] торрент скачать бесплатно

    Опубликовал: Админ | Дата: 21-07-2017, 05:00 | Просмотров: 2

    Производство: СССР, Норвегия, Студия Горького, Norsk Film A/S, Совинфильм
    Жанр: Приключения
    Режиссер: Станислав Ростоцкий

    Актеры
    Александр Тимошкин, Петронелла Баркер, Тор Стокке, Торгейр Фонилид, Джон Андерсен, Лизе Фьелдстад, Виктор Шульгин, Михаил Глузский, Василий Кравцов, Вера Панасенкова

    Описание

    Славянский юноша Кукша, попавший в плен к викингам, за мужество и отвагу получает имя Эйнар Счастливый. Начинается новый период в его жизни, полный приключений и обещаемого викингами счастья. Но единственное его желание — вернуться домой…

    Возраст: 12+ (зрителям, достигшим 12 лет)
    Релиз от: smithland
    Продолжительность: 02: 17: 45
    Качество видео: DVD9
    Перевод: Не требуется (русский)
    Субтитры: Отсутствуют
    Видео: MPEG-2, 704x576@1024x576, ~4836 Kbps
    Аудио: AC3, 2 ch, 448 Kbps, CBR
    Код: выделить все

    General
    Complete name : И на камнях растут деревья
    Format : MPEG-PS
    File size : 5.19 GiB
    Duration : 2 h 17 min
    Overall bit rate mode : Variable
    Overall bit rate : 5 391 kb/s
    Video
    ID : 224 (0xE0)
    Format : MPEG Video
    Format version : Version 2
    Format profile : Main@Main
    Format settings, BVOP : Yes
    Format settings, Matrix : Default
    Format settings, GOP : M=3, N=12
    Duration : 2 h 17 min
    Bit rate mode : Variable
    Bit rate : 4 836 kb/s
    Width : 704 pixels
    Height : 576 pixels
    Display aspect ratio : 16:9
    Frame rate : 25.000 FPS
    Standard : Component
    Color space : YUV
    Chroma subsampling : 4:2:0
    Bit depth : 8 bits
    Scan type : Progressive
    Compression mode : Lossy
    Bits/(Pixel*Frame) : 0.477
    Time code of first frame : 00:00:00:00
    Time code source : Group of pictures t_head
    GOP, Open/Closed : Closed
    Stream size : 4.65 GiB (90%)
    Color primaries : BT.601 PAL
    Transfer characteristics : BT.470 System B, BT.470 System G
    Matrix coefficients : BT.601
    Audio
    ID : 189 (0xBD)-128 (0x80)
    Format : AC-3
    Format/Info : Audio Coding 3
    Mode extension : CM (complete main)
    Format settings, Endianness : Big
    Muxing mode : DVD-Video
    Duration : 2 h 17 min
    Bit rate mode : Constant
    Bit rate : 448 kb/s
    Channel(s) : 2 channels
    Channel positions : Front: L R
    Sampling rate : 48.0 kHz
    Frame rate : 31.250 FPS (1536 spf)
    Bit depth : 16 bits
    Compression mode : Lossy
    Stream size : 441 MiB (8%)


    Скриншоты для ознакомления




    И на камнях растут деревья (1985) DVD9 [hand made remastered]
    загрузка...
    Рейтинг →
     (голосов: 1, оценка 4/5, голосовать можно 1 раз )

    Другие торренты по теме:

  • И на камнях растут деревья (1985) DVDRip [H.264 / hand made 60fps] скачать через торрент бесплатно
  • И на камнях растут деревья (1985) DVD5 [hand made remastered]


    • Комментарии (0):

      Информация

      Информация

        Посетители, находящиеся в группе Гости, не могут оставлять комментарии в данной новости.

        ↓ Меню




        ↓ Опрос

        Вы добавили сайт в закладки?
        Да
        Нет


        Top 10 за месяц (Другое)