.
Авторизация | Регистрация
Хочешь лучшие торренты? Добавь свой email!
Добавить

Торрент скачать бесплатно

» » Игра престолов / Game of Thrones (2011) HDTV [H.264 / 720p-LQ] LostFilm (сезон 1, сюжетная линия Дейнерис Таргариен) торрент скачать бесплатно



    Игра престолов / Game of Thrones (2011) HDTV [H.264 / 720p-LQ] LostFilm (сезон 1, сюжетная линия Дейнерис Таргариен) торрент скачать бесплатно

    Опубликовал: Админ | Дата: 20-01-2017, 05:00 | Просмотров: 30

    Производство: США, Великобритания
    Жанр: Фэнтези, Драма, Приключения
    Режиссер: Тим Ван Паттен, Брайан Кирк, Дэниел Минахан, Алан Тейлор

    Актеры
    Эмилия Кларк, Питер Динклэйдж, Лена Хиди, Николай Костер-Вальдау, Эйдан Гиллен, Иэн Глен, Кит Харингтон, Лиам Каннингэм, Айзек Хэмпстед-Райт, Софи Тернер и др.

    Описание

    Дейенерис — одна из важнейших главных персонажей серии: на протяжении действия сюжета она путешествует по странам Востока, пытаясь найти себе союзников, вернуться в Семь Королевств и отвоевать Железный Трон.

    Возраст: 18+ (зрителям, достигшим 18 лет. запрещено для детей)
    Рейтинг MPAA: R (лицам до 17 лет обязательно присутствие взрослого)
    Продолжительность: 01: 31: 55
    Качество видео: HDTV
    Перевод: Многоголосый закадровый, профессиональный - LostFilm
    Реклама: нет
    Видео: AVC/H.264, 1280х720, ~7300 kbps
    Аудио: MP2, 2 ch, 128 kbps, CBR

    Общее
    Уникальный идентификатор: 168348648403719580577546155723716462494 (0x7EA6C532C2870C1E037BA147C20E879E)
    Полное имя: F: НО СИСЬКИ И ДРАКОНЫDaenerys Targaryen (season1).mkv
    Формат: Matroska
    Версия формата: Version 2
    Размер файла: 4, 88 Гбайт
    Продолжительность: 1 ч. 31 м.
    Общий поток: 7595 Кбит/сек
    Программа кодирования: Lavf51.12.1
    Библиотека кодирования: Lavf51.12.1
    Видео
    Идентификатор: 1
    Формат: AVC
    Формат/Информация: Advanced Video Codec
    Профиль формата: Baseline@L1.3
    Параметр CABAC формата: Нет
    Параметр ReFrames формата: 1 кадр
    Параметр GOP формата: M=1, N=12
    Идентификатор кодека: V_MPEG4/ISO/AVC
    Продолжительность: 1 ч. 31 м.
    Битрейт: 7315 Кбит/сек
    Ширина: 1280 пикселей
    Высота: 720 пикселей
    Соотношение сторон: 16: 9
    Режим частоты кадров: Постоянный
    Частота кадров: 30, 000 кадров/сек
    Цветовое пространство: YUV
    Субдискретизация насыщенности: 4: 2: 0
    Битовая глубина: 8 бит
    Тип развёртки: Прогрессивная
    Бит/(Пиксели*Кадры): 0.265
    Размер потока: 4, 70 Гбайт (96%)
    Язык: English
    Default: Да
    Forced: Нет
    Аудио
    Идентификатор: 2
    Формат: MPEG Audio
    Версия формата: Version 1
    Профиль формата: Layer 2
    Идентификатор кодека : A_MPEG/L2
    Идентификатор кодека/Подсказка: MP2
    Продолжительность: 1 ч. Самое интересное в это истории, что об этом Европарламент ничего не знал. 31 м.
    Вид битрейта: Постоянный
    Битрейт: 128 Кбит/сек
    Каналы: 2 канала
    Частота: 44, 1 КГц
    Метод сжатия: С потерями
    Размер потока: 84, 1 Мбайт (2%)
    Язык: English
    Default: Да
    Forced: Нет


    Скриншоты для ознакомления



    Прямая ссылка скачивания через uTorrent


    Игра престолов/Game of Thrones (2011) HDTV [H.264/720p-LQ] LostFilm (сезон 1, сюжетная линия Дейнерис Таргариен)
    загрузка...
    Рейтинг →
     (голосов: 1, оценка 3/5, голосовать можно 1 раз )

    Другие торренты по теме:

  • Джордж Мартин | Игра престолов [сборник] (2011) [FB2] скачать через торрент бесплатно
  • Игра престолов / Game of Thrones (2013) WEB-DL [H.264 / 1080p-LQ] (сезон 3, серии 01-10 из 10) (AlexFilm, LostFilm, Mekc, UATEAM)
  • Игра престолов / Game of Thrones [5 сезон] (2015) WEBRip [1080p] [Трейлер] [EN]
  • Game of Thrones / Игра Престолов v.1.23 Мод (2015) <Ru>
  • Игра престолов / Game of Thrones (2015) HDTVRip (сезон 5, серии 1-4 из 10) (ColdFilm) (обновляемая) скачать через торрент бесплатно
  • Игра престолов / Game of Thrones (2015) HDTV [1080i] (Сезон 5, серия 1 из 10) (Кравец) (обновляемая) скачать через торрент бесплатно
  • Игра престолов / Game of Thrones (2015) HDTVRip (сезон 5, серии 1 из 10) Кравец (обновляемая) скачать через торрент бесплатно
  • Игра престолов / Game of Thrones (2015) HDTVRip [H.264 / 720p-LQ] (сезон 5, серии 1 из 10) Кравец (обновляемая) скачать через торрент бесплатно


    • Комментарии (0):

      Информация

      Информация

        Посетители, находящиеся в группе Гости, не могут оставлять комментарии в данной новости.

        ↓ Меню




        ↓ Опрос

        Вы добавили сайт в закладки?
        Да
        Нет


        Top 10 за месяц (Другое)