.
Авторизация | Регистрация
Хочешь лучшие торренты? Добавь свой email!
Добавить

Торрент скачать бесплатно

» » День независимости: Возрождение / Independence Day: Resurgence (2016) WEBRip [H.264 / 1080p] [Трейлер#2] торрент скачать бесплатно




    День независимости: Возрождение / Independence Day: Resurgence (2016) WEBRip [H.264 / 1080p] [Трейлер#2] торрент скачать бесплатно

    Опубликовал: Админ | Дата: 1-08-2016, 04:00 | Просмотров: 36

    Производство: США/Twentieth Century Fox Film Corporation
    Жанр: Фантастика, Боевик
    Режиссер: Роланд Эммерих

    Актеры
    Лиам Хемсворт, Джефф Голдблюм, Джесси Ашер, Майка Монро, Джои Кинг, Шарлотта Генсбур, Вивика А. Фокс, Билл Пуллман, Джадд Хирш, Села Уорд, Уильям Фихтнер, Диобия Оперей, Чин Хань, Патрик Сент Эсприт, Джеймс А. Вудс, Николас Райт

    Описание

    Используя инопланетные технологии, жители Земли создали специальную программу по защите планеты. Но ничего не может нас спасти от нового, еще более разрушительного и масштабного инопланетного вторжения — только смелость нескольких смельчаков, которые единственные могут спасти наш мир от уничтожения.

    Дата мировой премьеры: 23 июня 2016
    Дата российской премьеры: 23 июня 2016, Двадцатый Век Фокс СНГ
    Продолжительность: 00: 02: 24
    Качество видео: WEBRip
    Перевод: Дублированный
    Видео: AVC, 1920x1080 (16: 9), 23.976 fps, 18.0 Mbps (0.362 bit/pixel)
    Аудио: AC-3, 48.0 KHz, 6 ch, 448 Kbps, CBR (English)
    Код:

    General
    Unique ID : 34829608481422521986097099750432040259 (0x1A33F0479A3535B2F9D60D5B7D0FE543)
    Complete name : D:Independence-Day_-Resurgence-dub-trl2.mkv
    Format : Matroska
    Format version : Version 4/Version 2
    File size : 316 MiB
    Duration : 2mn 24s
    Overall bit rate : 18.3 Mbps
    Writing application : Lavf55.37.101
    Writing library : Lavf55.37.101
    Video
    ID : 1
    Format : AVC
    Format/Info : Advanced Video Codec
    Format profile :Baseline@L4.1
    Format settings, CABAC : No
    Format settings, ReFrames : 1 frame
    Codec ID : V_MPEG4/ISO/AVC
    Duration : 2mn 24s
    Bit rate : 18.0 Mbps
    Width : 1 920 pixels
    Height : 1 080 pixels
    Display aspect ratio : 16:9
    Frame rate mode : Constant
    Frame rate : 23.976 fps
    Color space : YUV
    Chroma subsampling : 4:2:0
    Bit depth : 8 bits
    Scan type : Progressive
    Bits/(Pixel*Frame) : 0.362
    Stream size : 302 MiB (96%)
    Writing library : x264 core 119
    Encoding settings : cabac=0/ref=1/deblock=0:0:0/analyse=0:0/me=dia/subme=0/psy=1/psy_rd=1.00:0.00/mixed_ref=0/me_range=16/chroma_me=1/trellis=0/8x8dct=0/cqm=0/deadzone=21, 11/fast_pskip=1/chroma_qp_offset=0/threads=4/sliced_threads=0/nr=0/decimate=1/interlaced=0/bluray_compat=0/constrained_intra=0/bframes=0/weightp=0/keyint=250/keyint_min=23/scenecut=0/intra_refresh=0/rc=abr/mbtree=0/bitrate=18000/ratetol=1.0/qcomp=0.60/qpmin=0/qpmax=69/qpstep=4/ip_ratio=1.40/aq=0
    Default : Yes
    Forced : No
    Encoded date : UTC 2016-04-22 10:32:57
    HANDLER_NAME : VideoHandler
    Audio
    ID : 2
    Format : AC-3
    Format/Info : Audio Coding 3
    Mode extension : CM (complete main)
    Format settings, Endianness : Big
    Codec ID : A_AC3
    Duration : 2mn 24s
    Bit rate mode : Constant
    Bit rate : 448 Kbps
    Channel(s) : 6 channels
    Channel positions : Front: L C R, Side: L R, LFE
    Sampling rate : 48.0 KHz
    Bit depth : 32 bits
    Compression mode : Lossy
    Delay relative to video : 18ms
    Stream size : 7.74 MiB (2%)
    Default : Yes
    Forced : No
    Encoded date : UTC 2016-04-22 10:32:57
    HANDLER_NAME : SoundHandler


    Скриншоты для ознакомления




    День независимости: Возрождение/Independence Day: Resurgence (2016) WEBRip [H.264/1080p] [Трейлер#2]
    загрузка...
    Рейтинг →
     (голосов: 1, оценка 5/5, голосовать можно 1 раз )

    Другие торренты по теме:

  • День независимости / Independence Day (1996) BDRip скачать через торрент бесплатно
  • День независимости 2: Возрождение / Independence Day: Resurgence (2016) WEBRip [H.264 / 1080p] [Трейлер] скачать через торрент бесплатно
  • День независимости 2: Возрождение / Independence Day: Resurgence (2016) WEBRip [H.264 / 1080p] [Трейлер#2]
  • День независимости / Independence Day (Directors Cut) (1996) BDRip [H.264 / 1080p]
  • День независимости / Independence Day (Theatrical Cut) (1996) BDRip [H.264 / 720p]
  • День независимости / Independence Day (1996) BDRip [H.264 / 720p] [Extended Cut] [Remastered]
  • День независимости / Independence Day (1996) BDRemux [H.264 / 1080p] [Расширенная версия]
  • День независимости / Independence Day (1996) BDRip [H.264 / 720p] [Remastered]


    • Комментарии (0):

      Информация

      Информация

        Посетители, находящиеся в группе Гости, не могут оставлять комментарии в данной новости.

        ↓ Меню




        ↓ Опрос

        Вы добавили сайт в закладки?
        Да
        Нет


        Top 10 за месяц (Другое)