.
Авторизация | Регистрация
Хочешь лучшие торренты? Добавь свой email!
Добавить

Торрент скачать бесплатно

» » Gun - Gun Sight (1969) Remastered / 2000, Repertoire / [FLAC|tracks+.cue]<Hard Rock, Psychedelic Rock, Heavy Psych> скачать через торрент бесплатно




    Gun - Gun Sight (1969) Remastered / 2000, Repertoire / [FLAC|tracks+.cue]<Hard Rock, Psychedelic Rock, Heavy Psych> скачать через торрент бесплатно

    Опубликовал: Админ | Дата: 13-08-2015, 04:00 | Просмотров: 122

    Страна-производитель диска: Germany
    Страна: UK
    Лейбл: Repertoire
    Номер по каталогу: REP 4841
    Год: 1969
    Жанр: Hard Rock, Psychedelic Rock, Heavy Psych
    Продолжительность: 00: 46: 44
    Тип рипа: tracks+.cue
    Кодек: FLAC
    Битрейт: Lossless

    Треклист

    01. Head in The Clouds 04: 41
    02. Drown Yourself in The River 02: 56
    03. Angeline 05: 36
    04. Dreams And Screams 05: 16
    05. Situation Vacant 04: 08
    06. Hobo 03: 40
    07. Lady Link Part One 00: 52
    08. Oh Lady You 05: 28
    09. Lady Link Part Two 00: 39
    10. Long Hair Wildman 03: 53
    Bonus Tracks:
    11. Hobo (single version) 03: 37
    12. Don\'t Look Back 03: 09
    13. Runnin1 Wild 02: 49
    Код:

    Exact Audio Copy V1.0 beta 3 from 29. August 2011
    EAC extraction logfile from 24. June 2015, 21:53
    Gun/GunSight
    Used drive : HL-DT-STDVDRAM GH24NS95 Adapter: 3 ID: 0
    Read mode : Secure
    Utilize accurate stream : Yes
    Defeat audio cache : Yes
    Make use of C2 pointers : No
    Read offset correction : 6
    Overread into Lead-In and Lead-Out : No
    Fill up missing offset samples with silence : Yes
    Delete leading and trailing silent blocks : No
    Null samples used in CRC calculations : Yes
    Used interface : Native Win32 interface for Win NT 2000
    Gap handling : Appended to previous track
    Used output format : User Defined Encoder
    Selected bitrate : 128 kBit/s
    Quality : High
    Add ID3 tag : Yes
    Command line compressor : C:Program FilesFLACflac.exe
    Additional command line options : -V -8 -T Genre=%genre% -T Artist=%artist% -T Title=%title% -T Album=%albumtitle% -T Date=%year% -T Tracknumber=%tracknr% -T Comment=%comment% %source%
    TOC of the extracted CD
    Track | Start | Length | Start sector | End sector
    ---------------------------------------------------------
    1 | 0:00.00 | 4:40.48 | 0 | 21047
    2 | 4:40.48 | 2:56.10 | 21048 | 34257
    3 | 7:36.58 | 5:36.34 | 34258 | 59491
    4 | 13:13.17 | 5:16.18 | 59492 | 83209
    5 | 18:29.35 | 4:07.45 | 83210 | 101779
    6 | 22:37.05 | 3:39.68 | 101780 | 118272
    7 | 26:16.73 | 0:51.56 | 118273 | 122153
    8 | 27:08.54 | 5:27.74 | 122154 | 146752
    9 | 32:36.53 | 0:38.43 | 146753 | 149645
    10 | 33:15.21 | 3:52.68 | 149646 | 167113
    11 | 37:08.14 | 3:37.16 | 167114 | 183404
    12 | 40:45.30 | 3:09.16 | 183405 | 197595
    13 | 43:54.46 | 2:49.21 | 197596 | 210291
    Track 1
    Filename F:Extract Audio Copyby fovit1 - Head In The Clouds.wav
    Pre-gap length 0:00:02.00
    Peak level 98.8 %
    Extraction speed 3.0 X
    Track quality 100.0 %
    Copy CRC 6ADC2239
    Cannot be verified as accurate (confidence 3) [F62C3674], AccurateRip returned [F6BC18A6] (AR v2)
    Copy OK
    Track 2
    Filename F:Extract Audio Copyby fovit2 - Drown Yourself In The River.wav
    Pre-gap length 0:00:02.00
    Peak level 98.8 %
    Extraction speed 1.1 X
    Track quality 100.0 %
    Copy CRC 01B04C55
    Cannot be verified as accurate (confidence 3) [C205E40B], AccurateRip returned [03047519] (AR v2)
    Copy OK
    Track 3
    Filename F:Extract Audio Copyby fovit3 - Angeline.wav
    Pre-gap length 0:00:02.00
    Peak level 98.8 %
    Extraction speed 1.3 X
    Track quality 100.0 %
    Copy CRC 5617AF2D
    Cannot be verified as accurate (confidence 3) [F53208C2], AccurateRip returned [9E85DDDB] (AR v2)
    Copy OK
    Track 4
    Filename F:Extract Audio Copyby fovit4 - Dreams And Screams.wav
    Pre-gap length 0:00:02.00
    Peak level 98.8 %
    Extraction speed 1.4 X
    Track quality 100.0 %
    Copy CRC F4C60614
    Cannot be verified as accurate (confidence 3) [565935E0], AccurateRip returned [99314531] (AR v2)
    Copy OK
    Track 5
    Filename F:Extract Audio Copyby fovit5 - Situation Vacant.wav
    Pre-gap length 0:00:02.00
    Peak level 98.8 %
    Extraction speed 1.5 X
    Track quality 100.0 %
    Copy CRC 9ECAD1D4
    Cannot be verified as accurate (confidence 3) [86864F35], AccurateRip returned [B911BA7D] (AR v2)
    Copy OK
    Track 6
    Filename F:Extract Audio Copyby fovit6 - Hobo.wav
    Pre-gap length 0:00:02.00
    Peak level 98.8 %
    Extraction speed 1.5 X
    Track quality 100.0 %
    Copy CRC 325943BC
    Cannot be verified as accurate (confidence 3) [614FE398], AccurateRip returned [D5CD473F] (AR v2)
    Copy OK
    Track 7
    Filename F:Extract Audio Copyby fovit7 - Lady Link Part One.wav
    Pre-gap length 0:00:02.00
    Peak level 94.4 %
    Extraction speed 1.0 X
    Track quality 100.0 %
    Copy CRC 6655F19B
    Cannot be verified as accurate (confidence 3) [2B590579], AccurateRip returned [155C3E97] (AR v2)
    Copy OK
    Track 8
    Filename F:Extract Audio Copyby fovit8 - Oh Lady You.wav
    Pre-gap length 0:00:02.00
    Peak level 98.8 %
    Extraction speed 1.6 X
    Track quality 99.9 %
    Copy CRC 08EAC36B
    Cannot be verified as accurate (confidence 3) [0CD6B112], AccurateRip returned [6768904C] (AR v2)
    Copy OK
    Track 9
    Filename F:Extract Audio Copyby fovit9 - Lady Link Part Two.wav
    Pre-gap length 0:00:02.00
    Peak level 94.4 %
    Extraction speed 1.0 X
    Track quality 100.0 %
    Copy CRC 2722AE7B
    Cannot be verified as accurate (confidence 3) [147A8FE1], AccurateRip returned [BABFB430] (AR v2)
    Copy OK
    Track 10
    Filename F:Extract Audio Copyby fovit10 - Long Hair Wildman.wav
    Peak level 99.9 %
    Extraction speed 1.7 X
    Track quality 100.0 %
    Copy CRC C3884D7F
    Cannot be verified as accurate (confidence 3) [ADBCDC1D], AccurateRip returned [A47926F0] (AR v2)
    Copy OK
    Track 11
    Filename F:Extract Audio Copyby fovit11 - Hobo (Single Version).wav
    Pre-gap length 0:00:02.00
    Peak level 98.8 %
    Extraction speed 1.8 X
    Track quality 100.0 %
    Copy CRC 35D6DC6B
    Cannot be verified as accurate (confidence 3) [C4344FCF], AccurateRip returned [D26F52AC] (AR v2)
    Copy OK
    Track 12
    Filename F:Extract Audio Copyby fovit12 - Don\'t Look Back.wav
    Pre-gap length 0:00:02.00
    Peak level 98.8 %
    Extraction speed 1.6 X
    Track quality 99.9 %
    Copy CRC E82006E8
    Cannot be verified as accurate (confidence 3) [029600CE], AccurateRip returned [9FB1D8E6] (AR v2)
    Copy OK
    Track 13
    Filename F:Extract Audio Copyby fovit13 - Runnin\' Wild.wav
    Pre-gap length 0:00:02.00
    Peak level 98.8 %
    Extraction speed 1.8 X
    Track quality 100.0 %
    Copy CRC 72E9AC2A
    Cannot be verified as accurate (confidence 3) [923548F4], AccurateRip returned [E0C33101] (AR v2)
    Copy OK
    No tracks could be verified as accurate
    You may have a different pressing from the one(s) in the database
    No errors occurred
    End of status report
    ==== Log checksum BE90CE4EA2CA68DD7FF53E900F46BF38128448DB8EC50DDD3C051301D5512ACA ====
    Код:

    -----------------------
    DON\'T MODIFY THIS FILE
    -----------------------
    PERFORMER: auCDtect Task Manager, ver. 1.5.1RC4 build 1.5.1.5
    Copyright (c) 2008-2010 y-soft. All rights reserved
    http://y-soft.org
    ANALYZER: auCDtect: CD records authenticity detector, version 0.8.2
    Copyright (c) 2004 Oleg Berngardt. All rights reserved.
    Copyright (c) 2004 Alexander Djourik. All rights reserved.
    FILE: 13 - Runnin\' Wild.flac
    Size: 22155332 Hash: 81A35FB47DB4EFA3C8F46EAAEFC689A5 Accuracy: -m0
    Conclusion: CDDA 100%
    Signature: 15EEE98E8D080BC15534C7B3E8D6C96D45AD064E
    FILE: 12 - Don\'t Look Back.flac
    Size: 11939444 Hash: 7AEACCAA597A3383D20B23BAF46F5347 Accuracy: -m0
    Conclusion: CDDA 100%
    Signature: 3BF78611030F080E0E642F49ACB38B0DC5585DCC
    FILE: 11 - Hobo (Single Version).flac
    Size: 13169590 Hash: 0072A644B8A526E4D5F020A861C06D85 Accuracy: -m0
    Conclusion: CDDA 100%
    Signature: 6EB97A493EED42253C20318D28D4DC65097581E1
    FILE: 10 - Long Hair Wildman.flac
    Size: 30091950 Hash: 10CF21BB953731703F1B9C02D0E1CF8D Accuracy: -m0
    Conclusion: CDDA 100%
    Signature: 8450361C84A7ACFD75709220D34E7AA1DE6F5B33
    FILE: 09 - Lady Link Part Two.flac
    Size: 4849868 Hash: F120EF6DC0B7B8A1B7AD3F81B2A90223 Accuracy: -m0
    Conclusion: CDDA 100%
    Signature: C636D6625415C7B6B9AC5D36B24E800ED0150617
    FILE: 08 - Oh Lady You.flac
    Size: 35598841 Hash: 4F0320B5758618C00120718BDBE0EE91 Accuracy: -m0
    Conclusion: CDDA 100%
    Signature: FF2A8699510FA79D59EBECD5C0D7FF3D0333E6B5
    FILE: 07 - Lady Link Part One.flac
    Size: 6141672 Hash: 9832FEA2C5F7E5BF33C49AE43A5AD669 Accuracy: -m0
    Conclusion: CDDA 100%
    Signature: 7FDF2BC9F49F1B9E87DC08C096546C6316CC414D
    FILE: 06 - Hobo.flac
    Size: 27431076 Hash: 08AE0ACC86EA295BC46C36C2462B6DFF Accuracy: -m0
    Conclusion: CDDA 99%
    Signature: 64B66F6162E8A5A251F88FD6893D57B5D367DE28
    FILE: 05 - Situation Vacant.flac
    Size: 31795223 Hash: E83E73AC27235F9F56AF471523563521 Accuracy: -m0
    Conclusion: CDDA 100%
    Signature: 8C8E86B024F59553C24A5D4010424E95BD4713E7
    FILE: 04 - Dreams And Screams.flac
    Size: 40607482 Hash: F1281F9D5EE9CE1E4DFD6106ACD4732C Accuracy: -m0
    Conclusion: CDDA 100%
    Signature: 39D41C86C29496C3A578E69070E798FB3B8268F7
    FILE: 03 - Angeline.flac
    Size: 39347937 Hash: 7EF93C7EE50DCC52D2A1DEB65B58E6F5 Accuracy: -m0
    Conclusion: CDDA 100%
    Signature: 179DCDD81A8F99989C1424CA9ADE34F64291C13B
    FILE: 02 - Drown Yourself In The River.flac
    Size: 22723086 Hash: E7E42F49332229D90C5B43014E814C95 Accuracy: -m0
    Conclusion: CDDA 100%
    Signature: 5E3481D3AFD65CBBC4206044400F8F3E8F514739
    FILE: 01 - Head In The Clouds.flac
    Size: 34795923 Hash: C7FEE705DA865700D81BBB7A4F2CD02F Accuracy: -m0
    Conclusion: CDDA 99%
    Signature: 06C912D668B8D824D31C83EAA2037321B93336C5
    Код:

    REM GENRE Rock
    REM DATE 1969
    REM DISCID C30AF30D
    REM COMMENT ExactAudioCopy v1.0b3
    PERFORMER Gun
    TITLE GunSight
    FILE 01 - Head In The Clouds.wav WAVE
    TRACK 01 AUDIO
    TITLE Head In The Clouds
    PERFORMER Gun
    FLAGS DCP
    INDEX 01 00:00:00
    TRACK 02 AUDIO
    TITLE Drown Yourself In The River
    PERFORMER Gun
    FLAGS DCP
    INDEX 00 04:38:48
    FILE 02 - Drown Yourself In The River.wav WAVE
    INDEX 01 00:00:00
    TRACK 03 AUDIO
    TITLE Angeline
    PERFORMER Gun
    FLAGS DCP
    INDEX 00 02:54:10
    FILE 03 - Angeline.wav WAVE
    INDEX 01 00:00:00
    TRACK 04 AUDIO
    TITLE Dreams And Screams
    PERFORMER Gun
    FLAGS DCP
    INDEX 00 05:34:34
    FILE 04 - Dreams And Screams.wav WAVE
    INDEX 01 00:00:00
    TRACK 05 AUDIO
    TITLE Situation Vacant
    PERFORMER Gun
    FLAGS DCP
    INDEX 00 05:14:18
    FILE 05 - Situation Vacant.wav WAVE
    INDEX 01 00:00:00
    TRACK 06 AUDIO
    TITLE Hobo
    PERFORMER Gun
    FLAGS DCP
    INDEX 00 04:05:45
    FILE 06 - Hobo.wav WAVE
    INDEX 01 00:00:00
    TRACK 07 AUDIO
    TITLE Lady Link Part One
    PERFORMER Gun
    FLAGS DCP
    INDEX 00 03:37:68
    FILE 07 - Lady Link Part One.wav WAVE
    INDEX 01 00:00:00
    TRACK 08 AUDIO
    TITLE Oh Lady You
    PERFORMER Gun
    FLAGS DCP
    INDEX 00 00:49:56
    FILE 08 - Oh Lady You.wav WAVE
    INDEX 01 00:00:00
    TRACK 09 AUDIO
    TITLE Lady Link Part Two
    PERFORMER Gun
    FLAGS DCP
    INDEX 00 05:25:74
    FILE 09 - Lady Link Part Two.wav WAVE
    INDEX 01 00:00:00
    FILE 10 - Long Hair Wildman.wav WAVE
    TRACK 10 AUDIO
    TITLE Long Hair Wildman
    PERFORMER Gun
    FLAGS DCP
    INDEX 01 00:00:00
    TRACK 11 AUDIO
    TITLE Hobo (Single Version)
    PERFORMER Gun
    FLAGS DCP
    INDEX 00 03:50:68
    FILE 11 - Hobo (Single Version).wav WAVE
    INDEX 01 00:00:00
    TRACK 12 AUDIO
    TITLE Don\'t Look Back
    PERFORMER Gun
    FLAGS DCP
    INDEX 00 03:35:16
    FILE 12 - Don\'t Look Back.wav WAVE
    INDEX 01 00:00:00
    TRACK 13 AUDIO
    TITLE Runnin\' Wild
    PERFORMER Gun
    FLAGS DCP
    INDEX 00 03:07:16
    FILE 13 - Runnin\' Wild.wav WAVE
    INDEX 01 00:00:00


    Скриншоты для ознакомления




    Gun - Gun Sight (1969) Remastered /2000, Repertoire/ [FLAC|tracks+.cue]<Hard Rock, Psychedelic Rock, Heavy Psych>
    загрузка...
    Рейтинг →
     (голосов: 1, оценка 5/5, голосовать можно 1 раз )

    Другие торренты по теме:

  • Loaded Gun - Loaded Gun (2015) [MP3|320 кб / с]<Hard Rock> скачать через торрент бесплатно
  • Gun x Sword | Gun Sword | Огнем и мечом [2005, TV, 26 эп.] DVDRip 480p raw+rus
  • Рассказы об оружии / Tales of the Gun (1998-2010) IPTVRip [2 серии из ] (Обновляемая) скачать через торрент бесплатно
  • Знает только Бог / By the Gun (2014) WEB-DLRip [VO]
  • Знает только Бог / С оружием в руках / By the Gun (2014) WEB-DL [H.264 / 720p-LQ][VO]
  • Знает только Бог / By the Gun (2014) WEB-DL [720p] ATV
  • Женщина-пистолет / Gun Woman (2014) BDRip [720p] [EN]
  • Молодая кровь / Son of a Gun (2014) WEB-DL [720p-LQ] [EN / EN Sub]


    • Комментарии (0):

      Информация

      Информация

        Посетители, находящиеся в группе Гости, не могут оставлять комментарии в данной новости.

        ↓ Меню




        ↓ Опрос

        Вы добавили сайт в закладки?
        Да
        Нет


        Top 10 за месяц (Музыка)