.
Авторизация | Регистрация
Хочешь лучшие торренты? Добавь свой email!
Добавить

Торрент скачать бесплатно

» » Rod Stewart - Star profile (2000) [FLAC|Lossless|image + .cue] <Pop, Rock> торрент скачать бесплатно




    Rod Stewart - Star profile (2000) [FLAC|Lossless|image + .cue] <Pop, Rock> торрент скачать бесплатно

    Опубликовал: Админ | Дата: 9-10-2017, 05:00 | Просмотров: 0

    Жанр: Pop, Rock
    Издание: All Stars - STK070032CMP Россия
    Источник: Из коллекции
    Продолжительность: 01: 14: 00
    Кодек: FLAC
    Битрейт: Lossless
    Тип рипа: image + .cue

    Треклист

    01.Baby Jane
    02.Da Ya Think I\\'m Sexy
    03.Sailing
    04.Ooh la la
    05.Rocks
    06.This Old Heart Of Mine(With Ronald Isley)
    07.I Was Only Jocking
    08.Superstar
    09.Young Turks
    10.What Am I Gonna Do (I\\'m So In Love With You)
    11.Shelly My Love
    12.The First Cut Is The Deepest
    13.Rhythm Of My Heart
    14.Purple Heather(With The Scottish Euro \\'96 Squad)
    15.When We Were The New Boys
    16.Weak
    17.Hotel Chambermaid


    Код: выделить все
    Exact Audio Copy V1.3 from 2. September 2016
    Отчёт EAC об извлечении, выполненном 7. октября 2017, 16:21
    Rod Stewart/Star Profile
    Дисковод: HL-DT-STDVDRAM GUE0N Adapter: 0 ID: 0
    Режим чтения : Достоверность
    Использование точного потока : Да
    Отключение кэша аудио : Да
    Использование указателей C2 : Нет
    Коррекция смещения при чтении : 102
    Способность читать области Lead-in и Lead-out : Нет
    Заполнение пропущенных сэмплов тишиной : Да
    Удаление блоков с тишиной в начале и конце : Нет
    При вычислениях CRC использовались нулевые сэмплы : Да
    Интерфейс : Установленный внешний ASPI-интерфейс
    Выходной формат : Пользовательский кодировщик
    Выбранный битрейт : 768 kBit/s
    Качество : Высокий
    Добавление ID3-тега : Нет
    Утилита сжатия : C:\Program Files (x86)\Exact Audio Copy\Flac\flac.exe
    Дополнительные параметры : -8 -V -T TITLE=%title% -T ARTIST=%artist% -T ALBUMARTIST=%albumartist% -T ALBUM=%albumtitle% -T DATE=%year% -T TRACKNUMBER=%tracknr% -T TRACKTOTAL=%numtracks% -T GENRE=%genre% -T COMMENT=%comment% -T PERFORMER=%albuminterpret% -T COMPOSER=%composer% %source% -o %dest%
    TOC извлечённого CD
    Трек | Старт | Длительность | Начальный сектор | Конечный сектор
    ---------------------------------------------------------------------
    1 | 0:00.00 | 4:44.72 | 0 | 21371
    2 | 4:44.72 | 4:21.22 | 21372 | 40968
    3 | 9:06.19 | 4:21.66 | 40969 | 60609
    4 | 13:28.10 | 4:16.20 | 60610 | 79829
    5 | 17:44.30 | 4:45.07 | 79830 | 101211
    6 | 22:29.37 | 4:11.06 | 101212 | 120042
    7 | 26:40.43 | 4:50.56 | 120043 | 141848
    8 | 31:31.24 | 4:20.68 | 141849 | 161416
    9 | 35:52.17 | 4:33.23 | 161417 | 181914
    10 | 40:25.40 | 3:36.41 | 181915 | 198155
    11 | 44:02.06 | 3:38.05 | 198156 | 214510
    12 | 47:40.11 | 3:54.47 | 214511 | 232107
    13 | 51:34.58 | 4:14.12 | 232108 | 251169
    14 | 55:48.70 | 5:04.29 | 251170 | 273998
    15 | 60:53.24 | 4:40.45 | 273999 | 295043
    16 | 65:33.69 | 4:37.05 | 295044 | 315823
    17 | 70:10.74 | 3:49.53 | 315824 | 333051
    Характеристики диапазона извлечения и сообщения об ошибках
    Выбранный диапазон
    Имя файла C:\FILMI-100\ПРОВЕРКА\Rod Stewart-star profile\Rod Stewart - Star Profile.wav
    Пиковый уровень 100.0 %
    Скорость извлечения 2.3 X
    Качество диапазона 100.0 %
    CRC теста 6A2D0F26
    CRC копии 6A2D0F26
    Копирование... OK
    Ошибок не произошло
    Конец отчёта
    ==== Контрольная сумма отчёта D064E874BA99B8CCD415817814D011266E8F80AD1D3F812C9D02C6048DA8D3BF ====


    Код: выделить все
    REM GENRE Rock
    REM DISCID EB115811
    REM COMMENT ExactAudioCopy v1.3
    PERFORMER Rod Stewart
    TITLE Star Profile
    REM COMPOSER
    FILE Rod Stewart - Star Profile.flac WAVE
    TRACK 01 AUDIO
    TITLE Baby Jane
    PERFORMER Rod Stewart
    REM COMPOSER
    INDEX 01 00:00:00
    TRACK 02 AUDIO
    TITLE Da Ya Think I\\'m Sexy
    PERFORMER Rod Stewart
    REM COMPOSER
    INDEX 01 04:44:72
    TRACK 03 AUDIO
    TITLE Sailing
    PERFORMER Rod Stewart
    REM COMPOSER
    INDEX 01 09:06:19
    TRACK 04 AUDIO
    TITLE Ooh La La
    PERFORMER Rod Stewart
    REM COMPOSER
    INDEX 01 13:28:10
    TRACK 05 AUDIO
    TITLE Rocks
    PERFORMER Rod Stewart
    REM COMPOSER
    INDEX 01 17:44:30
    TRACK 06 AUDIO
    TITLE This Old Heart Of Mine
    PERFORMER Rod Stewart
    REM COMPOSER
    INDEX 01 22:29:37
    TRACK 07 AUDIO
    TITLE I Was Only Joking
    PERFORMER Rod Stewart
    REM COMPOSER
    INDEX 01 26:40:43
    TRACK 08 AUDIO
    TITLE Superstar
    PERFORMER Rod Stewart
    REM COMPOSER
    INDEX 01 31:31:24
    TRACK 09 AUDIO
    TITLE Young Turks
    PERFORMER Rod Stewart
    REM COMPOSER
    INDEX 01 35:52:17
    TRACK 10 AUDIO
    TITLE What I\\'m Gonna Do
    PERFORMER Rod Stewart
    REM COMPOSER
    INDEX 01 40:25:40
    TRACK 11 AUDIO
    TITLE Shelly My Love
    PERFORMER Rod Stewart
    REM COMPOSER
    INDEX 01 44:02:06
    TRACK 12 AUDIO
    TITLE The First Cut Is The Deepest
    PERFORMER Rod Stewart
    REM COMPOSER
    INDEX 01 47:40:11
    TRACK 13 AUDIO
    TITLE Rythm Of My Heart
    PERFORMER Rod Stewart
    REM COMPOSER
    INDEX 01 51:34:58
    TRACK 14 AUDIO
    TITLE Purple Heather
    PERFORMER Rod Stewart
    REM COMPOSER
    INDEX 01 55:48:70
    TRACK 15 AUDIO
    TITLE When We Were The New Boys
    PERFORMER Rod Stewart
    REM COMPOSER
    INDEX 01 60:53:24
    TRACK 16 AUDIO
    TITLE Weak
    PERFORMER Rod Stewart
    REM COMPOSER
    INDEX 01 65:33:69
    TRACK 17 AUDIO
    TITLE Hotel Chambermaid
    PERFORMER Rod Stewart
    REM COMPOSER
    INDEX 01 70:10:74


    Код: выделить все
    -----------------------
    DON\\'T MODIFY THIS FILE
    -----------------------
    PERFORMER: auCDtect Task Manager, ver. 1.6.0 RC1 build 1.6.0.1
    Copyright (c) 2008-2010 y-soft. All rights reserved
    http://y-soft.org
    ANALYZER: auCDtect: CD records authenticity detector, version 0.8.2
    Copyright (c) 2004 Oleg Berngardt. All rights reserved.
    Copyright (c) 2004 Alexander Djourik. All rights reserved.
    FILE: Rod Stewart - Star Profile.flac
    Size: 511328186 Hash: AC4FD709556C3F0E858DEBF9B0A41D80 Accuracy: -m0
    Conclusion: CDDA 100%
    Signature: C13AA249A42C49648EEDCEA4FB7F9778D7C5A99B

    Время раздачи: 24/7 (до появления первых 3-5 скачавших)


    Поглощение/вытеснение
    Только с согласия релизера

    fanDYNAMO

    Rod Stewart - Star profile (2000) [FLAC|Lossless|image + .cue] <Pop, Rock>
    загрузка...
    Рейтинг →
     (голосов: 1, оценка 3/5, голосовать можно 1 раз )

    Другие торренты по теме:

  • Bill Stewart - Incandescence (2008) [FLAC|Lossless]<Post-Bop, Contemporary Jazz>
  • Rod Stewart - Picture In A Frame. The Best Ballads (2015) [MP3|320 кб / с]<Rock> скачать через торрент бесплатно
  • Rod Stewart - Greatest Hits (2012) 2CD [MP3|320 кб / с]<Rock, Classic Rock> скачать через торрент бесплатно
  • Rod Stewart - Greatest Hits (2012) 2CD [FLAC|image+.cue]<Rock, Classic Rock> скачать через торрент бесплатно
  • Rod Stewart - Another Country (2015) Deluxe Edition [FLAC|tracks|WEB-DL]<Hard Rock, Classic Rock> скачать через торрент бесплатно
  • Rod Stewart - Another Country (2015) Deluxe Edition [MP3|320 кб / с]<Hard Rock, Classic Rock> скачать через торрент бесплатно
  • Rod Stewart - Another Country (Deluxe Edition) (2015) [FLAC|Image+cue]<Classic Rock> скачать через торрент бесплатно
  • Al Stewart - Orange / Past, Present & Future / Modern Times (2004) 2CD Set [FLAC|image+.cue]<Folk Rock> скачать через торрент бесплатно


    • Комментарии (0):

      Информация

      Информация

        Посетители, находящиеся в группе Гости, не могут оставлять комментарии в данной новости.

        ↓ Меню




        ↓ Опрос

        Вы добавили сайт в закладки?
        Да
        Нет


        Top 10 за месяц (Музыка)