.
Авторизация | Регистрация
Хочешь лучшие торренты? Добавь свой email!
Добавить

Торрент скачать бесплатно

» » Kevin Toney - Strut (2001) [FLAC|Lossless|tracks + .cue] <Smooth Jazz> торрент скачать бесплатно




    Kevin Toney - Strut (2001) [FLAC|Lossless|tracks + .cue] <Smooth Jazz> торрент скачать бесплатно

    Опубликовал: Админ | Дата: 11-09-2017, 05:00 | Просмотров: 0

    Жанр: Smooth Jazz
    Издание: Shanachie – 5077
    Источник: ссылка
    Продолжительность: 00: 59: 24
    Кодек: FLAC
    Битрейт: Lossless
    Тип рипа: tracks + .cue

    Треклист

    01. Strut
    02. Karizma
    03. Passion Dance (feat. Ronnie Laws)
    04. Yearning For Your Love (feat. Evelyn Champagne King)
    05. Secret Agent
    06. Special Occasion
    07. Interlude
    08. Keeping It Real (feat. Chieli Minucci)
    09. After Midnight
    10. If I Don\'t Have Your Love (feat. Jeremy Monroe)
    11. All Day Long
    12. Aunt Mary
    13. Postlude

    Exact Audio Copy V1.0 beta 3 from 29. August 2011
    EAC extraction logfile from 22. January 2015, 16: 05
    Kevin Toney/Strut
    Used drive : ASUS DRW-24F1ST Adapter: 0 ID: 0
    Read mode : Secure
    Utilize accurate stream : Yes
    Defeat audio cache : Yes
    Make use of C2 pointers : No
    Read offset correction : 6
    Overread into Lead-In and Lead-Out : No
    Fill up missing offset samples with silence : Yes
    Delete leading and trailing silent blocks : No
    Null samples used in CRC calculations : Yes
    Used interface : Native Win32 interface for Win NT 2000
    Gap handling : Appended to previous track
    Used output format : User Defined Encoder
    Selected bitrate : 320 kBit/s
    Quality : High
    Add ID3 tag : No
    Command line compressor : C: Program FilesExact Audio CopyFlacflac.exe
    Additional command line options : -6 -V -T ARTIST=%artist% -T TITLE=%title% -T ALBUM=%albumtitle% -T DATE=%year% -T TRACKNUMBER=%tracknr% -T GENRE=%genre% -T COMMENT=%comment% -T BAND=%albuminterpret% -T ALBUMARTIST=%albuminterpret% -T COMPOSER=%composer% %haslyrics%--tag-from-file=LYRICS=%lyricsfile%%haslyrics% -T DISCNUMBER=%cdnumber% -T TOTALDISCS=%totalcds% -T TOTALTRACKS=%numtracks% %hascover%--picture=%coverfile%%hascover% %source% -o %dest%
    TOC of the extracted CD
    Track | Start | Length | Start sector | End sector
    ---------------------------------------------------------
    1 | 0: 00.00 | 5: 06.32 | 0 | 22981
    2 | 5: 06.32 | 5: 12.50 | 22982 | 46431
    3 | 10: 19.07 | 4: 54.73 | 46432 | 68554
    4 | 15: 14.05 | 5: 28.22 | 68555 | 93176
    5 | 20: 42.27 | 5: 26.40 | 93177 | 117666
    6 | 26: 08.67 | 6: 09.43 | 117667 | 145384
    7 | 32: 18.35 | 0: 41.25 | 145385 | 148484
    8 | 32: 59.60 | 5: 08.65 | 148485 | 171649
    9 | 38: 08.50 | 4: 35.10 | 171650 | 192284
    10 | 42: 43.60 | 5: 01.72 | 192285 | 214931
    11 | 47: 45.57 | 5: 31.63 | 214932 | 239819
    12 | 53: 17.45 | 5: 33.50 | 239820 | 264844
    13 | 58: 51.20 | 0: 52.42 | 264845 | 268786
    Track 1
    Filename C: 1 Strut.wav
    Pre-gap length 0: 00: 02.00
    Peak level 99.8 %
    Extraction speed 1.8 X
    Track quality 99.9 %
    Test CRC AAFDDDD5
    Copy CRC AAFDDDD5
    Accurately ripped (confidence 1) C69A6847 (AR v1)
    Copy OK
    Track 2
    Filename C: 2 Karizma.wav
    Pre-gap length 0: 00: 01.45
    Peak level 99.8 %
    Extraction speed 2.2 X
    Track quality 100.0 %
    Test CRC 21B84E83
    Copy CRC 21B84E83
    Accurately ripped (confidence 1) C188F2A5 (AR v1)
    Copy OK
    Track 3
    Filename C: 3 Passion Dance.wav
    Pre-gap length 0: 00: 01.42
    Peak level 99.8 %
    Extraction speed 2.4 X
    Track quality 100.0 %
    Test CRC 79E7E509
    Copy CRC 79E7E509
    Accurately ripped (confidence 1) 72EBFC0A (AR v1)
    Copy OK
    Track 4
    Filename C: 4 Yearning for Your Love.wav
    Pre-gap length 0: 00: 01.45
    Peak level 99.8 %
    Extraction speed 2.6 X
    Track quality 100.0 %
    Test CRC 6FFD810C
    Copy CRC 6FFD810C
    Accurately ripped (confidence 1) C526C869 (AR v1)
    Copy OK
    Track 5
    Filename C: 5 Secret Agent.wav
    Pre-gap length 0: 00: 01.47
    Peak level 99.8 %
    Extraction speed 2.8 X
    Track quality 100.0 %
    Test CRC 4980FDAB
    Copy CRC 4980FDAB
    Accurately ripped (confidence 1) E65527D4 (AR v1)
    Copy OK
    Track 6
    Filename C: 6 Special Occasion.wav
    Pre-gap length 0: 00: 01.42
    Peak level 99.8 %
    Extraction speed 3.1 X
    Track quality 100.0 %
    Test CRC 032DF7F6
    Copy CRC 032DF7F6
    Accurately ripped (confidence 1) BDAB34C7 (AR v1)
    Copy OK
    Track 7
    Filename C: 7 Interlude.wav
    Pre-gap length 0: 00: 01.45
    Peak level 89.4 %
    Extraction speed 1.8 X
    Track quality 100.0 %
    Test CRC ACB3AF9D
    Copy CRC ACB3AF9D
    Accurately ripped (confidence 1) A6BB7D16 (AR v1)
    Copy OK
    Track 8
    Filename C: 8 Keeping It Real.wav
    Pre-gap length 0: 00: 01.43
    Peak level 99.8 %
    Extraction speed 3.2 X
    Track quality 100.0 %
    Test CRC D1811308
    Copy CRC D1811308
    Accurately ripped (confidence 1) A567A991 (AR v1)
    Copy OK
    Track 9
    Filename C: 9 After Midnight.wav
    Pre-gap length 0: 00: 01.45
    Peak level 99.8 %
    Extraction speed 3.3 X
    Track quality 100.0 %
    Test CRC 0DFCFA7B
    Copy CRC 0DFCFA7B
    Accurately ripped (confidence 1) 09C39552 (AR v1)
    Copy OK
    Track 10
    Filename C: 10 If I Don\'t Have Your Love.wav
    Pre-gap length 0: 00: 01.45
    Peak level 99.8 %
    Extraction speed 3.5 X
    Track quality 100.0 %
    Test CRC A1DAF6B5
    Copy CRC A1DAF6B5
    Accurately ripped (confidence 1) 8063313B (AR v1)
    Copy OK
    Track 11
    Filename C: 11 All Day Long.wav
    Pre-gap length 0: 00: 01.45
    Peak level 99.8 %
    Extraction speed 3.7 X
    Track quality 100.0 %
    Test CRC 2B892E20
    Copy CRC 2B892E20
    Accurately ripped (confidence 1) 37E12EEB (AR v1)
    Copy OK
    Track 12
    Filename C: 12 Aunt Mary.wav
    Pre-gap length 0: 00: 01.43
    Peak level 99.8 %
    Extraction speed 2.9 X
    Track quality 99.9 %
    Test CRC 6AC0BEA8
    Copy CRC 6AC0BEA8
    Accurately ripped (confidence 1) 9D2ED29A (AR v1)
    Copy OK
    Track 13
    Filename C: 13 Postlude.wav
    Pre-gap length 0: 00: 01.45
    Peak level 98.1 %
    Extraction speed 2.5 X
    Track quality 100.0 %
    Test CRC 56F0B169
    Copy CRC 56F0B169
    Accurately ripped (confidence 1) D9FDD46B (AR v1)
    Copy OK
    All tracks accurately ripped
    No errors occurred
    End of status report
    ==== Log checksum B258D31CCB44BB588F8DB58421709BA7672AE9FAE0ED3AE74804725763EF7020 ====

    REM GENRE Smooth Jazz
    REM DATE 2001
    REM DISCID B90DFF0D
    REM COMMENT ExactAudioCopy v1.0b3
    CATALOG 0000000000000
    PERFORMER Kevin Toney
    TITLE Strut
    FILE 01 Strut.wav WAVE
    TRACK 01 AUDIO
    TITLE Strut
    PERFORMER Kevin Toney
    INDEX 01 00: 00: 00
    TRACK 02 AUDIO
    TITLE Karizma
    PERFORMER Kevin Toney
    INDEX 00 05: 04: 62
    FILE 02 Karizma.wav WAVE
    INDEX 01 00: 00: 00
    TRACK 03 AUDIO
    TITLE Passion Dance
    PERFORMER Kevin Toney
    INDEX 00 05: 11: 08
    FILE 03 Passion Dance.wav WAVE
    INDEX 01 00: 00: 00
    TRACK 04 AUDIO
    TITLE Yearning for Your Love
    PERFORMER Kevin Toney
    INDEX 00 04: 53: 28
    FILE 04 Yearning for Your Love.wav WAVE
    INDEX 01 00: 00: 00
    TRACK 05 AUDIO
    TITLE Secret Agent
    PERFORMER Kevin Toney
    INDEX 00 05: 26: 50
    FILE 05 Secret Agent.wav WAVE
    INDEX 01 00: 00: 00
    TRACK 06 AUDIO
    TITLE Special Occasion
    PERFORMER Kevin Toney
    INDEX 00 05: 24: 73
    FILE 06 Special Occasion.wav WAVE
    INDEX 01 00: 00: 00
    TRACK 07 AUDIO
    TITLE Interlude
    PERFORMER Kevin Toney
    INDEX 00 06: 07: 73
    FILE 07 Interlude.wav WAVE
    INDEX 01 00: 00: 00
    TRACK 08 AUDIO
    TITLE Keeping It Real
    PERFORMER Kevin Toney
    INDEX 00 00: 39: 57
    FILE 08 Keeping It Real.wav WAVE
    INDEX 01 00: 00: 00
    TRACK 09 AUDIO
    TITLE After Midnight
    PERFORMER Kevin Toney
    INDEX 00 05: 07: 20
    FILE 09 After Midnight.wav WAVE
    INDEX 01 00: 00: 00
    TRACK 10 AUDIO
    TITLE If I Don\'t Have Your Love
    PERFORMER Kevin Toney
    INDEX 00 04: 33: 40
    FILE 10 If I Don\'t Have Your Love.wav WAVE
    INDEX 01 00: 00: 00
    TRACK 11 AUDIO
    TITLE All Day Long
    PERFORMER Kevin Toney
    INDEX 00 05: 00: 27
    FILE 11 All Day Long.wav WAVE
    INDEX 01 00: 00: 00
    TRACK 12 AUDIO
    TITLE Aunt Mary
    PERFORMER Kevin Toney
    INDEX 00 05: 30: 20
    FILE 12 Aunt Mary.wav WAVE
    INDEX 01 00: 00: 00
    TRACK 13 AUDIO
    TITLE Postlude
    PERFORMER Kevin Toney
    INDEX 00 05: 32: 05
    FILE 13 Postlude.wav WAVE
    INDEX 01 00: 00: 00

    -----------------------
    DON\'T MODIFY THIS FILE
    -----------------------
    PERFORMER: auCDtect Task Manager, ver. 1.6.0 RC1 build 1.6.0.1
    Copyright (c) 2008-2010 y-soft. All rights reserved
    http://y-soft.org
    ANALYZER: auCDtect: CD records authenticity detector, version 0.8.2
    Copyright (c) 2004 Oleg Berngardt. All rights reserved.
    Copyright (c) 2004 Alexander Djourik. All rights reserved.
    FILE: 13 Postlude.flac
    Size: 3585253 Hash: 664379F7C0B3ED34C6941E36C8CC76F7 Accuracy: -m0
    Conclusion: CDDA 100%
    Signature: F72A533119D2DE6A2BBA8DDD54586E43A09DF2C0
    FILE: 12 Aunt Mary.flac
    Size: 38423822 Hash: 3FDE4F7A71E7276597AF5D345C1C557B Accuracy: -m0
    Conclusion: CDDA 100%
    Signature: FDE0C0AD9A0583478CDFABD5A0FD8BECC20DA148
    FILE: 11 All Day Long.flac
    Size: 38687404 Hash: 8ED1C5B38F609D182298FCF33E018D0E Accuracy: -m0
    Conclusion: CDDA 100%
    Signature: 86B8DDE87448686DF48F3B6D3480C8322830247F
    FILE: 10 If I Don\'t Have Your Love.flac
    Size: 32207884 Hash: E1333D970F3DF8BD91977AF76E5F2FFD Accuracy: -m0
    Conclusion: CDDA 100%
    Signature: DD3CD24C9318B8D66C89AD93D00528329088EE11
    FILE: 09 After Midnight.flac
    Size: 30905466 Hash: F4C73CBC6D15D180940BD6E649B302F0 Accuracy: -m0
    Conclusion: CDDA 100%
    Signature: AE535BAAE539757238668433AB4FF96EE2C86C2D
    FILE: 08 Keeping It Real.flac
    Size: 34684174 Hash: 8CC4B189A7125DCF73EB2188177F3ED0 Accuracy: -m0
    Conclusion: CDDA 100%
    Signature: 00C1E3665D74F70CF95C53E9BC0D0E48E218B399
    FILE: 07 Interlude.flac
    Size: 2664879 Hash: 681FF21BA26F5C86D3C96867FDCC3B7D Accuracy: -m0
    Conclusion: CDDA 100%
    Signature: 7337416CF1EDD947912D6F5F01548A6731FAD7FD
    FILE: 06 Special Occasion.flac
    Size: 41713278 Hash: B33478C5FCCCEC5C5171D104BE167236 Accuracy: -m0
    Conclusion: CDDA 100%
    Signature: 72289C77DE63FC2D82C38E147D29AD46D1ACC1E8
    FILE: 05 Secret Agent.flac
    Size: 35740402 Hash: AD9AF1B1D4A580ED7D45EFCC5C3060CC Accuracy: -m0
    Conclusion: CDDA 100%
    Signature: 43FC1214A0235631B9C3F2741F087C919CD3E41A
    FILE: 04 Yearning for Your Love.flac
    Size: 38052082 Hash: 1EC8ED66D53AA5AA9B73716DDB0E74B7 Accuracy: -m0
    Conclusion: CDDA 100%
    Signature: DDA6491EC6E3580338080E798271C378CFAA98C5
    FILE: 03 Passion Dance.flac
    Size: 32287441 Hash: 73FAEB0C152F7DBE1141D576BC3F6E1C Accuracy: -m0
    Conclusion: CDDA 100%
    Signature: A2815210D409EEC80715E72B5B4F644D3F5B655C
    FILE: 02 Karizma.flac
    Size: 33685904 Hash: 1E104A8416A6DA4742DC227DFA9A0645 Accuracy: -m0
    Conclusion: CDDA 99%
    Signature: D31C298BF32529A077BCFC32309506CE8AFF162D
    FILE: 01 Strut.flac
    Size: 32640198 Hash: 478688177982A523B221F95624E5F808 Accuracy: -m0
    Conclusion: CDDA 100%
    Signature: 5EEA8262FDEDA0E3FED5797C61DBF58976FB9351
    Время раздачи: 24/7 (до появления первых 3-5 скачавших)

    Kevin Toney - Strut (2001) [FLAC|Lossless|tracks + .cue] <Smooth Jazz>
    загрузка...
    Рейтинг →
     (голосов: 1, оценка 3/5, голосовать можно 1 раз )

    Другие торренты по теме:

  • Kevin Kern - 4 альбома (2004-2014) [MP3|320 kbps]<New Age, Instrumental, Neo-Classical, Piano>
  • Chopin - 4 Impromptus, Scherzo, Polonaise, Nocturnes, Mazurkas (Kevin Kenner) (2010) [FLAC|Lossless]<Classical, Romantic Period, Chamber Music, Recitals, Prelude, Fantasy, Nocturne, Scherzo, Impromptu, Mazurka, Polonaise> скачать через торрент бесплат
  • Kevin Bilchik Band - Thirteen Stories Tall (2015) [MP3|320 кб / с]<Funky Blues, Americana> скачать через торрент бесплатно
  • Kevin Healy - Dust And Fire (2015) [MP3|320 кб / с]<Blues / Rock> скачать через торрент бесплатно
  • Kevin Kern - Always Near / A Romantic collection (2014) [FLAC|image+.cue]<New Age,Piano> скачать через торрент бесплатно
  • Kevin 3Ngel - Cinematic Trance Volume One (2016)Singles[MP3|320 кб / с] <Trance>
  • Kevin Brown - Mojave Dust (2002) [FLAC|Lossless|tracks] <Blues, Acoustic Blues>
  • Kevin Waide Project - Almost The Marrying Kind (2016) [MP3|320 кб / с] <Electric Blues>


    • Комментарии (0):

      Информация

      Информация

        Посетители, находящиеся в группе Гости, не могут оставлять комментарии в данной новости.

        ↓ Меню




        ↓ Опрос

        Вы добавили сайт в закладки?
        Да
        Нет


        Top 10 за месяц (Музыка)