.
Авторизация | Регистрация
Хочешь лучшие торренты? Добавь свой email!
Добавить

Торрент скачать бесплатно

» » Дон Кихот Ламанческий / Don Quixote of La Mancha (1987) DVDRip торрент скачать бесплатно




    Дон Кихот Ламанческий / Don Quixote of La Mancha (1987) DVDRip торрент скачать бесплатно

    Опубликовал: Админ | Дата: 1-10-2017, 05:00 | Просмотров: 0

    Производство: Австралия, Burbank Films Australia
    Жанр: Рисованная анимация, Приключения, Детский
    Режиссер: Уорвик Гилберт

    Описание

    Эта знаменитая история по мотивам романа Мигеля де Сервантеса рассказывает об удивительных приключениях дворянина Дон Кихота Ламанческого, который облачается в старые доспехи и отправляется в рыцарский поход по Средневековой Испании, чтобы защитить справедливость и сделать мир лучше.
    Его верный оруженосец Санчо Пансо отправляется в путь вместе с ним и разделяет со своим хозяином все тяготы рыцарского похода.

    Возраст: 0+ (для любой зрительской аудитории)
    Дата выхода DVD: 24 мая 2006, Вокс Видео
    Продолжительность: 00: 48: 23
    Качество видео: DVDRip
    Перевод: Многоголосый закадровый, профессиональный
    Субтитры: отсутствуют
    Видео : MPEG4, XviD, 512x384 (4: 3), 25.000 fps, 1 620 Kbps (0.330 bit/pixel)
    Аудио #1: AC-3, 48.0 KHz, 2 ch, 192 Kbps, CBR Русский
    Аудио #2: AC-3, 48.0 KHz, 2 ch, 192 Kbps, CBR Английский

    Формат : AVI
    Формат/Информация : Audio Video Interleave
    Размер файла : 699 Мбайт
    Продолжительность : 48 м. 22 с.
    Общий поток : 2018 Кбит/сек
    Видео
    Идентификатор : 0
    Формат : MPEG-4 Visual
    Профиль формата : Simple@L3
    Параметр BVOP формата : Нет
    Параметр QPel формата : Нет
    Параметр GMC формата : Без точки перехода
    Параметр матрицы формата : Default (H.263)
    Идентификатор кодека : XVID
    Идентификатор кодека/Подсказка : XviD
    Продолжительность : 48 м. 22 с.
    Битрейт : 1620 Кбит/сек
    Ширина : 512 пикселей
    Высота : 384 пикселя
    Соотношение сторон : 4: 3
    Частота кадров : 25, 000 кадров/сек
    Цветовое пространство : YUV
    Субдискретизация насыщенности : 4: 2: 0
    Битовая глубина : 8 бит
    Тип развёртки : Прогрессивная
    Метод сжатия : С потерями
    Бит/(Пиксели*Кадры) : 0.330
    Размер потока : 561 Мбайт (80%)
    Библиотека кодирования : XviD 1.1.0 Beta2 (UTC 2005-04-04)
    Аудио #1
    Идентификатор : 1
    Формат : AC-3
    Формат/Информация : Audio Coding 3
    Расширение режима : CM (complete main)
    Параметр Endianness формата : Big
    Идентификатор кодека : 2000
    Продолжительность : 48 м. 22 с.
    Продолжительность оригинала : 48 м. 22 с.
    Вид битрейта : Постоянный
    Битрейт : 192 Кбит/сек
    Каналы : 2 канала
    Расположение каналов : Front: L R
    Частота : 48, 0 КГц
    Частота кадров : 31, 250 кадров/сек (1536 spf)
    Битовая глубина : 16 бит
    Метод сжатия : С потерями
    Размер потока : 66, 4 Мбайт (10%)
    Выравнивание : Соединение по промежуткам
    Продолжительность промежутка : 40 мс. (1, 00 видеокадр)
    Аудио #2
    Идентификатор : 2
    Формат : AC-3
    Формат/Информация : Audio Coding 3
    Расширение режима : CM (complete main)
    Параметр Endianness формата : Big
    Идентификатор кодека : 2000
    Продолжительность : 48 м. 22 с.
    Продолжительность оригинала : 48 м. 22 с.
    Вид битрейта : Постоянный
    Битрейт : 192 Кбит/сек
    Каналы : 2 канала
    Расположение каналов : Front: L R
    Частота : 48, 0 КГц
    Частота кадров : 31, 250 кадров/сек (1536 spf)
    Битовая глубина : 16 бит
    Метод сжатия : С потерями
    Размер потока : 66, 4 Мбайт (10%)
    Выравнивание : Соединение по промежуткам
    Продолжительность промежутка : 40 мс. (1, 00 видеокадр)

    Скриншоты для ознакомления



    Все одноименные релизы в Клубе
    Время раздачи: с 11: 00 до 01: 00 (до появления первых 3-5 скачавших)

    Онлайн видео Дон Кихот Ламанческий



    Дон Кихот Ламанческий/Don Quixote of La Mancha (1987) DVDRip
    загрузка...
    Рейтинг →
     (голосов: 1, оценка 5/5, голосовать можно 1 раз )

    Другие торренты по теме:

  • Дон Кихот Ламанческий / Don Quixote of La Mancha (1987) DVDRip [H.264]


    • Комментарии (0):

      Информация

      Информация

        Посетители, находящиеся в группе Гости, не могут оставлять комментарии в данной новости.

        ↓ Меню




        ↓ Опрос

        Вы добавили сайт в закладки?
        Да
        Нет


        Top 10 за месяц (Мультфильмы)