.
Авторизация | Регистрация
Хочешь лучшие торренты? Добавь свой email!
Добавить

Торрент скачать бесплатно

» » Звёздный десант: Предатель Марса / Starship Troopers: Traitor of Mars (2017) HDRip торрент скачать бесплатно




    Звёздный десант: Предатель Марса / Starship Troopers: Traitor of Mars (2017) HDRip торрент скачать бесплатно

    Опубликовал: Админ | Дата: 12-09-2017, 05:00 | Просмотров: 0

    Производство: Япония, США | Lucent Pictures Entertainment, Sola Digital Arts, Stage 6 Films
    Жанр: Мультфильм, фантастика, боевик
    Режиссер: Синдзи Арамаки, Масару Мацумото
    Продюссеры: Джозеф Чоу, Томи Хасимото, Макс Ниси
    Персонажи: Каспер Ван Дин, Дина Мейер, ДеРэй Дэвис, Люси Кристиан, Джастин Доран

    Описание

    На колонизированном людьми Марсе жизнь течёт мирно и спокойно. В остальной Федерации марсиан считают недалёкими, и десантник Джон Рико уже тоже начинает сомневаться в способностях своего отряда - раз за разом команда проваливает на симуляторе миссии по уничтожению колонии жуков. И когда внезапно Марс атакуют полчища уже настоящих гигантских насекомых, отряду новичков придется доказать, что марсиане способны постоять за родную планету.

    Рейтинг MPAA: R (лицам до 17 лет обязательно присутствие взрослого)
    Дата мировой премьеры: 21 августа 2017
    Продолжительность: 01: 27: 44
    Качество видео: HDRip
    Перевод: Многоголосый закадровый (iTunes)
    Субтитры: Отсутствуют
    Реклама: Отсутствует
    Видео: Xvid, 720x400 (16: 9), ~1837 kbps, 23.976 fps
    Аудио: AC3, 6 ch, 384 Kbps, 48.0 kHz, 16 bits

    General
    Complete name : D: 1_ENGLISHФИЛЬМЫStarship TroopersStarship Troopers_Traitor of Mars_NoNaMe-Club.avi
    Format : AVI
    Format/Info : Audio Video Interleave
    File size : 1.37 GiB
    Duration : 1 h 27 min
    Overall bit rate : 2 230 kb/s
    Writing application : VirtualDubMod 1.5.10.3 (build 2550/release)
    Writing library : VirtualDubMod build 2550/release
    Video
    ID : 0
    Format : MPEG-4 Visual
    Format profile : Advanced Simple@L5
    Format settings, BVOP : 2
    Format settings, QPel : No
    Format settings, GMC : No warppoints
    Format settings, Matrix : Default (MPEG)
    Codec ID : XVID
    Codec ID/Hint : XviD
    Duration : 1 h 27 min
    Bit rate : 1 837 kb/s
    Width : 720 pixels
    Height : 400 pixels
    Display aspect ratio : 16: 9
    Frame rate : 23.976 (24000/1001) FPS
    Color space : YUV
    Chroma subsampling : 4: 2: 0
    Bit depth : 8 bits
    Scan type : Progressive
    Compression mode : Lossy
    Bits/(Pixel*Frame) : 0.266
    Stream size : 1.13 GiB (82%)
    Writing library : XviD 1.2.1 (UTC 2008-12-04)
    Audio
    ID : 1
    Format : AC-3
    Format/Info : Audio Coding 3
    Format settings, Endianness : Big
    Codec ID : 2000
    Duration : 1 h 27 min
    Bit rate mode : Constant
    Bit rate : 384 kb/s
    Channel(s) : 6 channels
    Channel positions : Front: L C R, Side: L R, LFE
    Sampling rate : 48.0 kHz
    Frame rate : 31.250 FPS (1536 spf)
    Bit depth : 16 bits
    Compression mode : Lossy
    Stream size : 241 MiB (17%)
    Alignment : Split accross interleaves
    Interleave, duration : 42 ms (1.00 video frame)
    Interleave, preload duratio : 500 ms
    Service kind : Complete Main

    Скриншоты для ознакомления



    Все одноименные релизы в Клубе
    Время раздачи: 24/7 (до появления первых 3-5 скачавших)

    Онлайн видео Звёздный десант: Предатель Марса



    Звёздный десант: Предатель Марса/Starship Troopers: Traitor of Mars (2017) HDRip
    загрузка...
    Рейтинг →
     (голосов: 1, оценка 5/5, голосовать можно 1 раз )

    Другие торренты по теме:

  • Звёздный десант: Марсианский предатель / Starship Troopers: Traitor of Mars (2017) WEB-DL [H.264 / 720p-LQ] [MVO]
  • Звёздный десант: Марсианский предатель / Starship Troopers: Traitor of Mars (2017) WEB-DL [H.264 / 1080p-LQ] [EN]
  • Звёздный десант: Марсианский предатель / Starship Troopers: Traitor of Mars (2017) WEB-DL [H.264 / 720p-LQ] [EN]
  • Starship Troopers: Traitor of Mars |Звёздный десант: Предатель Марса [2017, Movie] WEB-DL 1080p eng+rus
  • Звёздный десант: Предатель Марса / Starship Troopers: Traitor of Mars (2017) WEB-DLRip [H.264] [AVO]
  • Звёздный десант: Предатель Марса / Starship Troopers: Traitor of Mars (2017) AC3 5.1 [Solod]
  • Звёздный десант: Предатель Марса / Starship Troopers: Traitor of Mars (2017) BDRip [H.264 / 1080p]
  • Звёздный десант: Марсианский предатель / Starship Troopers: Traitor of Mars (2017) BDRemux [H.264 / 1080p]


    • Комментарии (0):

      Информация

      Информация

        Посетители, находящиеся в группе Гости, не могут оставлять комментарии в данной новости.

        ↓ Меню




        ↓ Опрос

        Вы добавили сайт в закладки?
        Да
        Нет


        Top 10 за месяц (Мультфильмы)

        МиниФорс / MiniForce (2017) WEB-DLRip [H.264 / 720p-LQ] (сезон 1, серии 1-26) [Обновляемая]

        (скачиваний: 38)
        О.В. Кишенкова | ОГЭ 2018. Обществознание: тренировочные задания (2017) [PDF]

        (скачиваний: 9)
        Русалочка (1976) DVD9

        (скачиваний: 9)
        К.М. Баранова и др. | Английский язык. Лексический практикум. 11 класс. Starlight 11 Vocabulary Practice. (2013) [PDF, JPG] скачать через торрент бесплатно

        (скачиваний: 7)
        София Прекрасная: Как стать принцессой / Sofia the First (2017) WEBRip (4 сезон: 1-4 серии из )

        (скачиваний: 6)
        Королевская академия / Regal Academy (2016) SATRip [H.264] (Сезон 1, 26 серий из 26) [UKR]

        (скачиваний: 5)
        Герои Энвелла (2017) WEB-DLRip [H.264 / 720p-LQ] (сезон 1, серия 01 из 26) [Обновляемая]

        (скачиваний: 5)
        О.М. Авраменко, М.Б. Блажко | Украинский язык и литература. Справочник. Задания в тестовой форме. Часть I (2015) [PDF] скачать через торрент бесплатно

        (скачиваний: 5)
        Грузовичок Лёва (1-64 серии) WEBRip

        (скачиваний: 4)
        Джин Хэйнс | Мир акварели. Техники, эксперименты, практические советы (2017) [PDF]

        (скачиваний: 4)