.
Авторизация | Регистрация
Хочешь лучшие торренты? Добавь свой email!
Добавить

Торрент скачать бесплатно

» » Звёздный десант: Предатель Марса / Starship Troopers: Traitor of Mars (2017) WEB-DLRip [H.264] [AVO] торрент скачать бесплатно




    Звёздный десант: Предатель Марса / Starship Troopers: Traitor of Mars (2017) WEB-DLRip [H.264] [AVO] торрент скачать бесплатно

    Опубликовал: Админ | Дата: 11-09-2017, 05:00 | Просмотров: 0

    Производство: Япония, США
    Жанр: Компьютерная анимация
    Режиссер: Синдзи Арамаки, Масару Мацумото

    Описание

    Джонни Рико понижают в должности и переводят на марсианскую спутниковую станцию, в то время как Федерация планирует завершающий удар по родной планете жуков и стягивает туда силы флота. Однако совсем скоро Рико выясняет, что в это же время жуки готовят тайное вторжение на Марс. Теперь ему вместе с отрядами новобранцев предстоит принять на себя атаку, чтобы спасти планету, лишенную защиты космического флота.

    Возраст: 18+ (зрителям, достигшим 18 лет. запрещено для детей)
    Рейтинг MPAA: R (лицам до 17 лет обязательно присутствие взрослого)
    Дата мировой премьеры: 21 августа 2017
    Релиз от: VoiceOver Solod
    Продолжительность: 01: 27: 51
    Качество видео: WEB-DLRip
    Перевод: Одноголосый закадровый авторский, Solod
    Субтитры: Отсутствуют
    Реклама: Отсутствует
    Видео: AVC/H.264, 1024x576, ~1900 kbps
    Аудио: AC3, 6 ch, 448 kbps

    General
    Unique ID : 188823645414962939081713387566167702577 (0x8E0E1C7D963CBD4F50CE0D65321F3C31)
    Complete name : starship.troopers.traitor.of.mars.2017.1024.solod.rus.5.1.mkv
    Format : Matroska
    Format version : Version 4/Version 2
    File size : 1.44 GiB
    Duration : 1 h 27 min
    Overall bit rate : 2 349 kb/s
    Movie name : Starship Troopers: Traitor of Mars | 2017 | Solod
    Released date : 2017
    Encoded date : UTC 2017-09-07 06: 12: 10/UTC 2017-08-26T19: 42: 23Z
    Writing application : mkvmerge v15.0.0 (\'Duel with the Devil\') 64-bit
    Writing library : libebml v1.3.5 + libmatroska v1.4.5/Lavf57.7.2
    Video
    ID : 1
    Format : AVC
    Format/Info : Advanced Video Codec
    Format profile : High@L4.1
    Format settings, CABAC : Yes
    Format settings, RefFrames : 10 frames
    Codec ID : V_MPEG4/ISO/AVC
    Duration : 1 h 27 min
    Bit rate : 1 900 kb/s
    Width : 1 024 pixels
    Height : 576 pixels
    Display aspect ratio : 16: 9
    Frame rate mode : Constant
    Frame rate : 23.976 (24000/1001) FPS
    Color space : YUV
    Chroma subsampling : 4: 2: 0
    Bit depth : 8 bits
    Scan type : Progressive
    Bits/(Pixel*Frame) : 0.134
    Stream size : 1.14 GiB (79%)
    Writing library : x264 core 152
    Encoding settings : cabac=1/ref=10/deblock=1: -2: -2/analyse=0x3: 0x113/me=umh/subme=11/psy=1/psy_rd=1, 15: 0, 20/mixed_ref=1/me_range=24/chroma_me=1/trellis=2/8x8dct=1/cqm=0/deadzone=21, 11/fast_pskip=1/chroma_qp_offset=-3/threads=6/lookahead_threads=1/sliced_threads=0/nr=0/decimate=1/interlaced=0/bluray_compat=0/constrained_intra=0/bframes=11/b_pyramid=2/b_adapt=1/b_bias=0/direct=1/weightb=1/open_gop=0/weightp=2/keyint=240/keyint_min=24/scenecut=40/intra_refresh=0/rc_lookahead=40/rc=2pass/mbtree=1/bitrate=1900/ratetol=1, 0/qcomp=0, 60/qpmin=0/qpmax=69/qpstep=4/cplxblur=20, 0/qblur=0, 5/vbv_maxrate=62500/vbv_bufsize=78125/nal_hrd=none/filler=0/ip_ratio=1, 40/aq=1: 1, 00
    Default : Yes
    Forced : No
    Color range : Limited
    Color primaries : BT.709
    Transfer characteristics : BT.709
    Matrix coefficients : BT.709
    Statistics Tags Issue : mkvmerge v15.0.0 (\'Duel with the Devil\') 64-bit 2017-09-07 06: 12: 10/mkvmerge v15.0.0 (\'Duel with the Devil\') 64-bit 2017-09-07 06: 12: 10/UTC 2017-08-26T19: 42: 23Z
    FromStats_BitRate : 1900044
    FromStats_Duration : 01: 27: 51.725000000
    FromStats_FrameCount : 126395
    FromStats_StreamSize : 1252063695
    Audio
    ID : 2
    Format : AC-3
    Format/Info : Audio Coding 3
    Format settings, Endianness : Big
    Codec ID : A_AC3
    Duration : 1 h 27 min
    Bit rate mode : Constant
    Bit rate : 448 kb/s
    Channel(s) : 6 channels
    Channel positions : Front: L C R, Side: L R, LFE
    Sampling rate : 48.0 kHz
    Frame rate : 31.250 FPS (1536 SPF)
    Bit depth : 16 bits
    Compression mode : Lossy
    Stream size : 282 MiB (19%)
    Title : vo solod
    Language : Russian
    Service kind : Complete Main
    Default : Yes
    Forced : No
    Statistics Tags Issue : mkvmerge v15.0.0 (\'Duel with the Devil\') 64-bit 2017-09-07 06: 12: 10/mkvmerge v15.0.0 (\'Duel with the Devil\') 64-bit 2017-09-07 06: 12: 10/UTC 2017-08-26T19: 42: 23Z
    FromStats_BitRate : 448000
    FromStats_Duration : 01: 27: 41.952000000
    FromStats_FrameCount : 164436
    FromStats_StreamSize : 294669312

    Скриншоты для ознакомления



    Все одноименные релизы в Клубе
    Время раздачи: 24/7 (до появления первых 3-5 скачавших)

    Онлайн видео Звёздный десант: Предатель Марса



    Звёздный десант: Предатель Марса/Starship Troopers: Traitor of Mars (2017) WEB-DLRip [H.264] [AVO]
    загрузка...
    Рейтинг →
     (голосов: 1, оценка 5/5, голосовать можно 1 раз )

    Другие торренты по теме:

  • Звёздный десант: Марсианский предатель / Starship Troopers: Traitor of Mars (2017) WEB-DL [H.264 / 720p-LQ] [MVO]
  • Звёздный десант: Марсианский предатель / Starship Troopers: Traitor of Mars (2017) WEB-DL [H.264 / 1080p-LQ] [EN]
  • Звёздный десант: Марсианский предатель / Starship Troopers: Traitor of Mars (2017) WEB-DL [H.264 / 720p-LQ] [EN]
  • Starship Troopers: Traitor of Mars |Звёздный десант: Предатель Марса [2017, Movie] WEB-DL 1080p eng+rus
  • Звёздный десант: Предатель Марса / Starship Troopers: Traitor of Mars (2017) AC3 5.1 [Solod]
  • Звёздный десант: Предатель Марса / Starship Troopers: Traitor of Mars (2017) BDRip [H.264 / 1080p]
  • Звёздный десант: Предатель Марса / Starship Troopers: Traitor of Mars (2017) HDRip
  • Звёздный десант: Марсианский предатель / Starship Troopers: Traitor of Mars (2017) BDRemux [H.264 / 1080p]


    • Комментарии (0):

      Информация

      Информация

        Посетители, находящиеся в группе Гости, не могут оставлять комментарии в данной новости.

        ↓ Меню




        ↓ Опрос

        Вы добавили сайт в закладки?
        Да
        Нет


        Top 10 за месяц (Мультфильмы)

        МиниФорс / MiniForce (2017) WEB-DLRip [H.264 / 720p-LQ] (сезон 1, серии 1-26) [Обновляемая]

        (скачиваний: 38)
        О.В. Кишенкова | ОГЭ 2018. Обществознание: тренировочные задания (2017) [PDF]

        (скачиваний: 9)
        Русалочка (1976) DVD9

        (скачиваний: 9)
        Герои Энвелла (2017) WEB-DLRip [H.264 / 720p-LQ] (сезон 1, серия 01 из 26) [Обновляемая]

        (скачиваний: 8)
        К.М. Баранова и др. | Английский язык. Лексический практикум. 11 класс. Starlight 11 Vocabulary Practice. (2013) [PDF, JPG] скачать через торрент бесплатно

        (скачиваний: 7)
        София Прекрасная: Как стать принцессой / Sofia the First (2017) WEBRip (4 сезон: 1-4 серии из )

        (скачиваний: 6)
        О.М. Авраменко, М.Б. Блажко | Украинский язык и литература. Справочник. Задания в тестовой форме. Часть I (2015) [PDF] скачать через торрент бесплатно

        (скачиваний: 5)
        Королевская академия / Regal Academy (2016) SATRip [H.264] (Сезон 1, 26 серий из 26) [UKR]

        (скачиваний: 5)
        Микель Пьер, Плантен Поль-Анри | Древний Египет (1999) [PDF, DJVU]

        (скачиваний: 4)
        Самурай Джек / Samurai Jack (2017) WEB-DL [H.264 / 1080p-LQ] (Сезон 5, серии 1 из 10)

        (скачиваний: 4)