.
Авторизация | Регистрация
Хочешь лучшие торренты? Добавь свой email!
Добавить

Торрент скачать бесплатно

» » Кротик и Панда / Krtek a panda (2017) WEB-DLRip [H.264 / 720p-LQ] (сезон 1, серии 1-18 из 52) [Обновляемая] торрент скачать бесплатно




    Кротик и Панда / Krtek a panda (2017) WEB-DLRip [H.264 / 720p-LQ] (сезон 1, серии 1-18 из 52) [Обновляемая] торрент скачать бесплатно

    Опубликовал: Админ | Дата: 11-09-2017, 05:00 | Просмотров: 0

    Год выпуска: 2017
    Производство: Китай, Чехия
    Жанр: Мультсериал, Компьютерная анимация
    Режиссер: Цэн Вэйцзин

    Описание

    Самый знаменитый крот в мировой анимации возвращается на наши экраны! В 2017 году забавный подземный житель, которого придумал чешский художник Зденек Милер, отмечает свой 60-летний юбилей. Но Кротик совсем не постарел: напротив, он стал еще энергичнее, веселее и современнее, чтобы прийтись по вкусу новому поколению малышей. Встречайте его в красочном мультсериале для самых маленьких Кротик и Панда. Непоседливый и добродушный Кротик роет норы где-то в глубинках Чехии. Мимо его дома проезжает девочка на велосипеде, которая роняет свою любимую игрушку – плюшевую панду Хохо. Кротик подбирает бесприютного малыша. Новые друзья отныне живут вместе, делят вкусные угощения и веселые игры. Они прекрасно проводят время, но приходит время расставания: хозяйка возвращается за своим любимцем. Опечаленному Кротику остается только бирка от игрушки. Зато на ней написано, где живет настоящая панда. Маленький путешественник берет курс на далекий Китай! Жители бамбукового леса узнают чешского гостя благодаря мультфильмам и встречают его с распростертыми объятьями. Всех маленьких зрителей приглашаем в путешествие по экзотичным местам Китая и предлагаем посмотреть мультсериал Кротик и Панда.

    Возраст: 0+ (для любой зрительской аудитории)
    Рейтинг MPAA: G (нет возрастных ограничений)
    Релиз от: Natasha77
    Продолжительность: ~00: 12: 00 серия
    Качество видео: WEB-DLRip
    Перевод: Дублированный (CLS MЕDIA)
    Субтитры: Отсутствуют
    Видео: AVC/H.264, 1280x720, ~1500 kbps
    Аудио: Русский: AС3, 2 ch, 192 kbps
    General
    Unique ID : 263976877179451583181546183797613638324 (0xC69818E4A08E1CEE044B962E99E9B2B4)
    Complete name : C: Кротик и Панда (720p-AVC)5_Хвост ящерицы.mkv
    Format : Matroska
    Format version : Version 4/Version 2
    File size : 165 MiB
    Duration : 12 min 5 s
    Overall bit rate : 1 908 kb/s
    Writing application : Lavf57.25.100
    Writing library : Lavf57.25.100
    Video
    ID : 1
    Format : AVC
    Format/Info : Advanced Video Codec
    Format profile : Baseline@L3
    Format settings, CABAC : No
    Format settings, RefFrames : 2 frames
    Codec ID : V_MPEG4/ISO/AVC
    Duration : 12 min 5 s
    Bit rate : 1 678 kb/s
    Width : 1 280 pixels
    Height : 720 pixels
    Display aspect ratio : 16: 9
    Frame rate mode : Constant
    Frame rate : 25.000 FPS
    Color space : YUV
    Chroma subsampling : 4: 2: 0
    Bit depth : 8 bits
    Scan type : Progressive
    Bits/(Pixel*Frame) : 0.073
    Stream size : 145 MiB (88%)
    Writing library : x264 core 144 r2533 c8a773e
    Encoding settings : cabac=0/ref=2/deblock=1: 1: 1/analyse=0x1: 0x131/me=umh/subme=10/psy=1/psy_rd=0.40: 0.00/mixed_ref=1/me_range=24/chroma_me=1/trellis=2/8x8dct=0/cqm=0/deadzone=21, 11/fast_pskip=1/chroma_qp_offset=-2/threads=24/lookahead_threads=2/sliced_threads=0/nr=0/decimate=1/interlaced=0/bluray_compat=0/constrained_intra=0/bframes=0/weightp=0/keyint=200/keyint_min=20/scenecut=40/intra_refresh=0/rc_lookahead=60/rc=crf/mbtree=1/crf=26.0/qcomp=0.60/qpmin=0/qpmax=69/qpstep=4/ip_ratio=1.40/aq=1: 0.60
    Default : Yes
    Forced : No
    DURATION : 00: 12: 05.000000000
    Audio
    ID : 2
    Format : AC-3
    Format/Info : Audio Coding 3
    Format settings, Endianness : Big
    Codec ID : A_AC3
    Duration : 12 min 5 s
    Bit rate mode : Constant
    Bit rate : 192 kb/s
    Channel(s) : 2 channels
    Channel positions : Front: L R
    Sampling rate : 44.1 kHz
    Frame rate : 28.711 FPS (1536 SPF)
    Bit depth : 16 bits
    Compression mode : Lossy
    Stream size : 16.6 MiB (10%)
    Service kind : Complete Main
    Default : Yes
    Forced : No
    DURATION : 00: 12: 05.020000000


    Онлайн видео Кротик и Панда



    Кротик и Панда/Krtek a panda (2017) WEB-DLRip [H.264/720p-LQ] (сезон 1, серии 1-18 из 52) [Обновляемая]
    загрузка...
    Рейтинг →
     (голосов: 1, оценка 4/5, голосовать можно 1 раз )

    Другие торренты по теме:



      Комментарии (0):

      Информация

      Информация

        Посетители, находящиеся в группе Гости, не могут оставлять комментарии в данной новости.

        ↓ Меню




        ↓ Опрос

        Вы добавили сайт в закладки?
        Да
        Нет


        Top 10 за месяц (Мультфильмы)

        МиниФорс / MiniForce (2017) WEB-DLRip [H.264 / 720p-LQ] (сезон 1, серии 1-26) [Обновляемая]

        (скачиваний: 38)
        О.В. Кишенкова | ОГЭ 2018. Обществознание: тренировочные задания (2017) [PDF]

        (скачиваний: 9)
        Русалочка (1976) DVD9

        (скачиваний: 9)
        К.М. Баранова и др. | Английский язык. Лексический практикум. 11 класс. Starlight 11 Vocabulary Practice. (2013) [PDF, JPG] скачать через торрент бесплатно

        (скачиваний: 7)
        София Прекрасная: Как стать принцессой / Sofia the First (2017) WEBRip (4 сезон: 1-4 серии из )

        (скачиваний: 6)
        Королевская академия / Regal Academy (2016) SATRip [H.264] (Сезон 1, 26 серий из 26) [UKR]

        (скачиваний: 5)
        Герои Энвелла (2017) WEB-DLRip [H.264 / 720p-LQ] (сезон 1, серия 01 из 26) [Обновляемая]

        (скачиваний: 5)
        О.М. Авраменко, М.Б. Блажко | Украинский язык и литература. Справочник. Задания в тестовой форме. Часть I (2015) [PDF] скачать через торрент бесплатно

        (скачиваний: 5)
        Грузовичок Лёва (1-64 серии) WEBRip

        (скачиваний: 4)
        Джин Хэйнс | Мир акварели. Техники, эксперименты, практические советы (2017) [PDF]

        (скачиваний: 4)