.
Авторизация | Регистрация
Хочешь лучшие торренты? Добавь свой email!
Добавить

Торрент скачать бесплатно

» » Про Сидорова Вову (1985) DVDRip торрент скачать бесплатно




    Про Сидорова Вову (1985) DVDRip торрент скачать бесплатно

    Опубликовал: Админ | Дата: 11-09-2017, 05:00 | Просмотров: 0

    Производство: СССР | Союзмультфильм
    Жанр: Короткометражный
    Режиссер: Эдуард Назаров

    Описание

    В основу мультфильма положено сатирическое стихотворение Э. Успенского, высмеивающее родителей, которые в своей слепой любви доходят до абсурда и тем самым калечат ребенка, воспитывая его неприспособленным к нормальной трудовой жизни, службе в армии.

    Продолжительность: 00: 09: 55
    Качество видео: DVDRip
    Субтитры: отсутствуют
    Видео: XviD, 720x544 (4: 3), 25.000 fps, 4067 Kbps (0.415 bit/pixel)
    Аудио: MP3, 32.0 KHz, 1 ch, 112 Kbps, CBR

    Complete name : DownloadsПро сидорова Вову.avi
    Format : AVI
    Format/Info : Audio Video Interleave
    File size : 297 MiB
    Duration : 9mn 55s
    Overall bit rate : 4 189 Kbps
    Writing application : VirtualDubMod 1.5.4.1 (build 2178/release)
    Writing library : VirtualDub build 32593/release
    Video
    ID : 0
    Format : MPEG-4 Visual
    Format profile : Advanced Simple@L5
    Format settings, BVOP : 1
    Format settings, QPel : No
    Format settings, GMC : No warppoints
    Format settings, Matrix : Custom
    Codec ID : XVID
    Codec ID/Hint : XviD
    Duration : 9mn 55s
    Bit rate : 4 067 Kbps
    Width : 720 pixels
    Height : 544 pixels
    Display aspect ratio : 4: 3
    Frame rate : 25.000 fps
    Color space : YUV
    Chroma subsampling : 4: 2: 0
    Bit depth : 8 bits
    Scan type : Progressive
    Compression mode : Lossy
    Bits/(Pixel*Frame) : 0.415
    Stream size : 289 MiB (97%)
    Writing library : XviD 1.3.0.dev55
    Audio
    ID : 1
    Format : MPEG Audio
    Format version : Version 1
    Format profile : Layer 3
    Codec ID : 55
    Codec ID/Hint : MP3
    Duration : 9mn 55s
    Bit rate mode : Constant
    Bit rate : 112 Kbps
    Channel(s) : 1 channel
    Sampling rate : 32.0 KHz
    Compression mode : Lossy
    Stream size : 7.95 MiB (3%)
    Alignment : Split accross interleaves
    Interleave, duration : 40 ms (1.00 video frame)
    Interleave, preload duratio : 500 ms
    Writing library : LAME3.98.2

    Скриншоты для ознакомления



    Все одноименные релизы в Клубе

    Онлайн видео Беовульф



    Про Сидорова Вову (1985) DVDRip
    загрузка...
    Рейтинг →
     (голосов: 1, оценка 5/5, голосовать можно 1 раз )

    Другие торренты по теме:

  • Сборник мультфильмов Эдуарда Назарова (Бегемотик, Жил-был Пес, Мартынко, Охота, Принцесса и Людоед, Про Сидорова Вову, Путешествие Муравья...) (1973-1987) DVD5 скачать через торрент бесплатно


    • Комментарии (0):

      Информация

      Информация

        Посетители, находящиеся в группе Гости, не могут оставлять комментарии в данной новости.

        ↓ Меню




        ↓ Опрос

        Вы добавили сайт в закладки?
        Да
        Нет


        Top 10 за месяц (Мультфильмы)

        МиниФорс / MiniForce (2017) WEB-DLRip [H.264 / 720p-LQ] (сезон 1, серии 1-26) [Обновляемая]

        (скачиваний: 38)
        О.В. Кишенкова | ОГЭ 2018. Обществознание: тренировочные задания (2017) [PDF]

        (скачиваний: 9)
        Русалочка (1976) DVD9

        (скачиваний: 9)
        К.М. Баранова и др. | Английский язык. Лексический практикум. 11 класс. Starlight 11 Vocabulary Practice. (2013) [PDF, JPG] скачать через торрент бесплатно

        (скачиваний: 7)
        София Прекрасная: Как стать принцессой / Sofia the First (2017) WEBRip (4 сезон: 1-4 серии из )

        (скачиваний: 6)
        Королевская академия / Regal Academy (2016) SATRip [H.264] (Сезон 1, 26 серий из 26) [UKR]

        (скачиваний: 5)
        Герои Энвелла (2017) WEB-DLRip [H.264 / 720p-LQ] (сезон 1, серия 01 из 26) [Обновляемая]

        (скачиваний: 5)
        О.М. Авраменко, М.Б. Блажко | Украинский язык и литература. Справочник. Задания в тестовой форме. Часть I (2015) [PDF] скачать через торрент бесплатно

        (скачиваний: 5)
        Грузовичок Лёва (1-64 серии) WEBRip

        (скачиваний: 4)
        Джин Хэйнс | Мир акварели. Техники, эксперименты, практические советы (2017) [PDF]

        (скачиваний: 4)