.
Авторизация | Регистрация
Хочешь лучшие торренты? Добавь свой email!
Добавить

Торрент скачать бесплатно

» » Гадкий я 3 / Despicable Me 3 (2017) WEBRip [H.264 / 1080p-LQ] [AD] торрент скачать бесплатно




    Гадкий я 3 / Despicable Me 3 (2017) WEBRip [H.264 / 1080p-LQ] [AD] торрент скачать бесплатно

    Опубликовал: Админ | Дата: 4-09-2017, 05:00 | Просмотров: 0

    Производство: США, Illumination Entertainment, Universal Pictures
    Жанр: Мультфильм, фантастика, боевик, комедия, приключения, семейный
    Режиссер: Эрик Гуильон, Кайл Балда, Пьер Коффан
    Продюсер: Джанет Хили, Бретт Хоффман, Кристофер Меледандри
    Персонажи: Стив Карелл, Кристен Уиг, Трей Паркер, Миранда Косгров, Дэна Гайер, Нев Шаррел, Пьер Коффан, Стив Куган, Джули Эндрюс, Дженни Слейт ...

    Описание

    Грядет третье пришествие. Многодетный суперагент, роковая красотка и бессмертные миньоны на подходе. Готовьтесь. Они будут править миром.

    Возраст: 6+ (зрителям, достигшим 6 лет)
    Рейтинг MPAA: PG (рекомендуется присутствие родителей)
    Дата мировой премьеры: 14 июня 2017, ...
    Дата российской премьеры: 29 июня 2017, UPI
    Релиз от: KOSHARA
    Продолжительность: 01: 30: 37
    Качество видео: WEBRip H.264/1080p-LQ
    Перевод: Дублированный (Чистый звук)
    Реклама: Присутствует реклама!
    Видео: AVC/H.264, 1920x800, 4881 Kbps
    Аудио: AC-3, 48.0 KHz, 2 ch, 384 Kbps

    Общее
    Уникальный идентификатор : 203445567539410950757495456244065500652 (0x990E30E9285050449206DD1067B9FDEC)
    Полное имя : D: ФильмыGadkiy.Ya.3.2017.WEBRip.1080p.mkv
    Формат : Matroska
    Версия формата : Version 2
    Размер файла : 3, 33 Гбайт
    Продолжительность : 1 ч. 30 м.
    Режим общего битрейта : Переменный
    Общий поток : 5267 Кбит/сек
    Дата кодирования : UTC 2017-09-02 21: 11: 28
    Программа кодирования : mkvmerge v8.3.0 (\'Over the Horizon\') 64bit
    Библиотека кодирования : libebml v1.3.1 + libmatroska v1.4.2
    Видео
    Идентификатор : 1
    Формат : AVC
    Формат/Информация : Advanced Video Codec
    Профиль формата : High@L4.1
    Параметр CABAC формата : Да
    Параметр RefFrames формата : 5 кадров
    Идентификатор кодека : V_MPEG4/ISO/AVC
    Продолжительность : 1 ч. 30 м.
    Вид битрейта : Переменный
    Битрейт : 4881 Кбит/сек
    Максимальный битрейт : 5500 Кбит/сек
    Ширина : 1920 пикселей
    Высота : 800 пикселей
    Соотношение сторон : 2, 40: 1
    Режим частоты кадров : Постоянный
    Частота кадров : 23, 976 (24000/1001) кадра/сек
    Стандарт вещания : Component
    Цветовое пространство : YUV
    Субдискретизация насыщенности : 4: 2: 0
    Битовая глубина : 8 бит
    Тип развёртки : Прогрессивная
    Бит/(Пиксели*Кадры) : 0.133
    Размер потока : 3, 09 Гбайт (93%)
    Default : Да
    Forced : Нет
    Цветовой диапазон : Limited
    Основные цвета : BT.709
    Характеристики трансфера : BT.709
    Коэффициенты матрицы : BT.709
    Аудио
    Идентификатор : 2
    Формат : AC-3
    Формат/Информация : Audio Coding 3
    Параметр Endianness формата : Big
    Идентификатор кодека : A_AC3
    Продолжительность : 1 ч. 30 м.
    Вид битрейта : Постоянный
    Битрейт : 384 Кбит/сек
    Каналы : 2 канала
    Расположение каналов : Front: L R
    Частота : 48, 0 КГц
    Частота кадров : 31, 250 кадров/сек (1536 SPF)
    Битовая глубина : 16 бит
    Метод сжатия : С потерями
    Размер потока : 249 Мбайт (7%)
    ServiceKind/String : Complete Main
    Default : Да
    Forced : Нет

    Скриншоты для ознакомления


    Все одноименные релизы в Клубе
    Время раздачи: 24/7 (до появления первых 3-5 скачавших)

    Онлайн видео Гадкий я 3



    Гадкий я 3/Despicable Me 3 (2017) WEBRip [H.264/1080p-LQ] [AD]
    загрузка...
    Рейтинг →
     (голосов: 1, оценка 4/5, голосовать можно 1 раз )

    Другие торренты по теме:

  • Despicable Me / Гадкий Я 2.8.0k [Ru] скачать через торрент бесплатно
  • Гадкий я 3 / Despicable Me 3 (2017) TS [H.264] [MP4|720x304] [AD]
  • Гадкий Я / Despicable Me (2010) BDRip [H.265 / 1080p-LQ]
  • Гадкий Я 2 / Despicable Me 2 (2013) BDRip [H.265 / 1080p-LQ]
  • Гадкий я 3 / Despicable Me 3 (2017) WEBRip [H.264 / 1080p-LQ] [EN / EN Sub]
  • Гадкий я 3 / Despicable Me 3 (2017) WEBRip [AD]
  • Гадкий я 3 / Despicable Me 3 (2017) WEB-DL [H.264 / 1080p-LQ] [EN / EN Sub]
  • Гадкий я 3 / Despicable Me 3 (2017) BDRip [H.264 / 1080p] [EN / EN Sub]


    • Комментарии (0):

      Информация

      Информация

        Посетители, находящиеся в группе Гости, не могут оставлять комментарии в данной новости.

        ↓ Меню




        ↓ Опрос

        Вы добавили сайт в закладки?
        Да
        Нет


        Top 10 за месяц (Мультфильмы)

        МиниФорс / MiniForce (2017) WEB-DLRip [H.264 / 720p-LQ] (сезон 1, серии 1-26) [Обновляемая]

        (скачиваний: 38)
        Русалочка (1976) DVD9

        (скачиваний: 9)
        К.М. Баранова и др. | Английский язык. Лексический практикум. 11 класс. Starlight 11 Vocabulary Practice. (2013) [PDF, JPG] скачать через торрент бесплатно

        (скачиваний: 7)
        София Прекрасная: Как стать принцессой / Sofia the First (2017) WEBRip (4 сезон: 1-4 серии из )

        (скачиваний: 6)
        О.М. Авраменко, М.Б. Блажко | Украинский язык и литература. Справочник. Задания в тестовой форме. Часть I (2015) [PDF] скачать через торрент бесплатно

        (скачиваний: 5)
        Королевская академия / Regal Academy (2016) SATRip [H.264] (Сезон 1, 26 серий из 26) [UKR]

        (скачиваний: 5)
        С.Е. Гаврина и др. | Школа для дошколят. Сборник книг [2002-2006] [DJVU] (21 книга)

        (скачиваний: 4)
        Mahou Tsukai no Yome: Hoshi Matsu Hito / The Ancient Magus Bride: Those Awaiting a Star / Невеста чародея: В ожидании путеводной звезды [2017, OVA, 3 ep] WEB-DL 720p Raw+Rus

        (скачиваний: 4)
        Доктор Машинкова / Doctor Mac Wheelie (2014) WEBRip [H.264 / 720p-LQ] (сезон 1, серии 1-33 из ) (Обновляемая)

        (скачиваний: 4)
        Джин Хэйнс | Мир акварели. Техники, эксперименты, практические советы (2017) [PDF]

        (скачиваний: 4)