.
Авторизация | Регистрация
Хочешь лучшие торренты? Добавь свой email!
Добавить

Торрент скачать бесплатно

» » Kindaichi Shounen no Jikenbo / The Case Files of Young Kindaichi / Дело ведёт юный детектив Киндаичи, фильм первый [1996, Movie] WEBRip 480i raw торрент скачать бесплатно




    Kindaichi Shounen no Jikenbo / The Case Files of Young Kindaichi / Дело ведёт юный детектив Киндаичи, фильм первый [1996, Movie] WEBRip 480i raw торрент скачать бесплатно

    Опубликовал: Админ | Дата: 3-09-2017, 05:00 | Просмотров: 0

    Тип: Movie
    Жанр: Детектив, приключения
    Продолжительность: 95 мин
    Дата выпуска: 14.12.1996
    Производство: Япония, Toei Animation
    Автор оригинала: Аги Тадаси
    Режиссер: Нисио Дайсукэ
    Ссылки: World-Art, AniDb

    Описание

    Кто не знает Киндаичи Хаджиме, внука знаменитого детектива Киндаичи Коске? Ну разве что тот убийца, который превратил оперный театр в место преступления, а героя Призрака оперы - в реально существующего Фантома. Оправданием может послужить лишь тот факт, что и сам Хаджиме-чан понятия не имел, что получится из его летнего путешествия на остров Уташима...
    Язык озвучки: Японский
    Субтитры: Русские
    Качество видео: WEBRip
    Видео: AVC (High@L3.1), 848х480, 23.976 fps, 934 kbs, 0.096bit/pixel
    Аудио: AAC 2 ch, 44.1 kHz, 128 kbps

    Скриншоты для ознакомления



    Format : Matroska
    Format version : Version 4/Version 2
    File size : 726 MiB
    Duration : 1 h 34 min
    Overall bit rate : 1 072 kb/s
    Movie name : Orphan Kindaichi Shounen no Jikenbo movie 1 (HDTV 480p v0)
    Encoded date : UTC 2017-09-01 20: 29: 54
    Writing application : mkvmerge v14.0.0 (\'Flow\') 64bit
    Writing library : libebml v1.3.4 + libmatroska v1.4.5
    Attachments : 20THBOLD.TTF/123Marker.ttf/AllerDisplay.ttf/ArchitectsDaughter.ttf/FOT Rodin Pro EB.ttf/FOT-ChiaroStd-B.ttf/FOT-DotGothic12Std-M.otf/FOT-PopHappinessStd-EB.otf/FOT-RodinPro-B(c).ttf/FOT-SeuratPro-B(c).ttf/FOT-TsukuAOldMinPr6-B(c).ttf/FrutigerLTStd-Bold.otf/FrutigerLTStd-BoldItalic.otf/KozMinPro-Bold.ttf/KozMinPro-Medium.ttf/KozMinPro-Regular.ttf/Kozuka Mincho Pro H.ttf
    Video
    ID : 1
    Format : AVC
    Format/Info : Advanced Video Codec
    Format profile : High@L3.1
    Format settings, CABAC : Yes
    Format settings, RefFrames : 8 frames
    Codec ID : V_MPEG4/ISO/AVC
    Duration : 1 h 34 min
    Bit rate : 934 kb/s
    Width : 848 pixels
    Height : 480 pixels
    Display aspect ratio : 16: 9
    Frame rate mode : Constant
    Frame rate : 23.976 (24000/1001) FPS
    Color space : YUV
    Chroma subsampling : 4: 2: 0
    Bit depth : 8 bits
    Scan type : Progressive
    Bits/(Pixel*Frame) : 0.096
    Stream size : 633 MiB (87%)
    Title : Video
    Writing library : x264 core 148 r2638 7599210
    Encoding settings : cabac=1/ref=8/deblock=1: 1: 1/analyse=0x3: 0x133/me=umh/subme=6/psy=1/psy_rd=0.60: 0.00/mixed_ref=1/me_range=16/chroma_me=1/trellis=2/8x8dct=1/cqm=0/deadzone=21, 11/fast_pskip=1/chroma_qp_offset=-2/threads=6/lookahead_threads=1/sliced_threads=0/nr=0/decimate=1/interlaced=0/bluray_compat=0/constrained_intra=0/bframes=16/b_pyramid=2/b_adapt=1/b_bias=0/direct=3/weightb=0/open_gop=0/weightp=2/keyint=240/keyint_min=23/scenecut=40/intra_refresh=0/rc_lookahead=40/rc=crf/mbtree=1/crf=18.0/qcomp=0.60/qpmin=10/qpmax=51/qpstep=4/ip_ratio=1.40/aq=1: 0.00
    Default : Yes
    Forced : No
    Audio
    ID : 2
    Format : AAC
    Format/Info : Advanced Audio Codec
    Format profile : LC
    Codec ID : A_AAC
    Duration : 1 h 34 min
    Bit rate : 128 kb/s
    Channel(s) : 2 channels
    Channel positions : Front: L R
    Sampling rate : 44.1 kHz
    Frame rate : 43.066 FPS (1024 SPF)
    Compression mode : Lossy
    Stream size : 86.9 MiB (12%)
    Title : Japanese audio
    Language : Japanese
    Default : Yes
    Forced : No
    Text
    ID : 3
    Format : ASS
    Codec ID : S_TEXT/ASS
    Codec ID/Info : Advanced Sub Station Alpha
    Duration : 1 h 29 min
    Bit rate : 175 b/s
    Count of elements : 1008
    Compression mode : Lossless
    Stream size : 115 KiB (0%)
    Language : Russian
    Default : Yes
    Forced : No
    Menu
    00: 00: 00.000 : en: Opening Credits
    00: 01: 57.970 : en: Cast of Characters
    00: 16: 18.830 : en: First Victim
    00: 25: 27.330 : en: Suspicions
    00: 34: 47.690 : en: First Insight
    00: 44: 26.640 : en: More Victims
    01: 02: 03.860 : en: The Answer
    01: 21: 27.480 : en: Last Act
    01: 27: 58.410 : en: Aftermath
    01: 30: 25.250 : en: Ending
    Время раздачи: с 20: 00 до 01: 00, до появления первых 5 скачавших (до появления первых 3-5 скачавших)

    Онлайн видео Kindaichi Shounen no Jikenbo



    Kindaichi Shounen no Jikenbo/The Case Files of Young Kindaichi/Дело ведёт юный детектив Киндаичи, фильм первый [1996, Movie] WEBRip 480i raw
    загрузка...
    Рейтинг →
     (голосов: 1, оценка 5/5, голосовать можно 1 раз )

    Другие торренты по теме:

  • Kindaichi Shounen no Jikenbo Returns / Kindaichi Case Files Returns / Дело ведёт юный детектив Киндаичи: Возвращение [2014, TV, 25] HDTVRip 720p raw+rus скачать через торрент бесплатно
  • Kindaichi Shounen no Jikenbo / Kindaichi Case Files / Дело ведёт юный детектив Киндаичи [1997, TV, 1-104 из 148] DVDRip 480p Raw


    • Комментарии (0):

      Информация

      Информация

        Посетители, находящиеся в группе Гости, не могут оставлять комментарии в данной новости.

        ↓ Меню




        ↓ Опрос

        Вы добавили сайт в закладки?
        Да
        Нет


        Top 10 за месяц (Мультфильмы)

        МиниФорс / MiniForce (2017) WEB-DLRip [H.264 / 720p-LQ] (сезон 1, серии 1-26) [Обновляемая]

        (скачиваний: 38)
        О.В. Кишенкова | ОГЭ 2018. Обществознание: тренировочные задания (2017) [PDF]

        (скачиваний: 9)
        Русалочка (1976) DVD9

        (скачиваний: 9)
        К.М. Баранова и др. | Английский язык. Лексический практикум. 11 класс. Starlight 11 Vocabulary Practice. (2013) [PDF, JPG] скачать через торрент бесплатно

        (скачиваний: 7)
        София Прекрасная: Как стать принцессой / Sofia the First (2017) WEBRip (4 сезон: 1-4 серии из )

        (скачиваний: 6)
        Королевская академия / Regal Academy (2016) SATRip [H.264] (Сезон 1, 26 серий из 26) [UKR]

        (скачиваний: 5)
        Герои Энвелла (2017) WEB-DLRip [H.264 / 720p-LQ] (сезон 1, серия 01 из 26) [Обновляемая]

        (скачиваний: 5)
        О.М. Авраменко, М.Б. Блажко | Украинский язык и литература. Справочник. Задания в тестовой форме. Часть I (2015) [PDF] скачать через торрент бесплатно

        (скачиваний: 5)
        Грузовичок Лёва (1-64 серии) WEBRip

        (скачиваний: 4)
        Джин Хэйнс | Мир акварели. Техники, эксперименты, практические советы (2017) [PDF]

        (скачиваний: 4)