.
Авторизация | Регистрация
Хочешь лучшие торренты? Добавь свой email!
Добавить

Торрент скачать бесплатно

» » Подводная эра / Deep (2017) WEB-DL [H.264 / 720p-LQ] торрент скачать бесплатно




    Подводная эра / Deep (2017) WEB-DL [H.264 / 720p-LQ] торрент скачать бесплатно

    Опубликовал: Админ | Дата: 3-09-2017, 05:00 | Просмотров: 0

    Производство: США, Испания, Бельгия
    Жанр: мультфильм, комедия, приключения, семейный
    Режиссер: Джулио Сото Гарпид
    Персонажи: Фил ЛаМарр, Джесс Харнелл, Джефф Беннетт, Дэйв Фенной, Боб Берген, Уильям Салиерс, Анна Вочино, Терри Дуглас, Джо Охман

    Описание

    К 2100 году люди покинули нашу планету. Но в глубокой впадине на самом дне океана продолжает жить колония удивительных морских существ. Среди них любопытный глубоководный осьминожек Дип и двое его друзей — пугливый удильщик Иво и вертится как белка в колесе импульсивная креветка Элис. Однако, когда их дому угрожает опасность, мудрый дедушка Дипа, гигантский осьминог Кракен, отправляет их за помощью на другой конец океана. Друзей и присоединившуюся к ним стеснительную мурену Мойру ждет целое море опасных и невероятных приключений…

    Возраст: 6+ (зрителям, достигшим 6 лет)
    Рейтинг MPAA: PG (рекомендуется присутствие родителей)
    Дата мировой премьеры: 11 мая 2017
    Дата российской премьеры: 1 июня 2017, Вольга
    Релиз от: NNMCLUB
    Продолжительность: 01: 32: 00
    Качество видео: WEB-DL (EVO)
    Перевод: Дублированный (iTunes)
    Субтитры: Английский
    Видео: AVC/H.264, 1280x688 (1.85: 1), ~ 4045 kbps, 23, 976 fps
    Аудио 1: AC3, 2 ch, 192 Kbps | Русский
    Аудио 2: AC3, 6 ch, 384 Kbps | Английский

    Полное имя : Подводная эра_Deep.2017.WEB-DL.720p.NNMCLUB.mkv
    Формат : Matroska
    Версия формата : Version 4/Version 2
    Размер файла : 2, 99 Гбайт
    Продолжительность : 1 ч. 32 м.
    Общий поток : 4623 Кбит/сек
    Название фильма : Подводная эра_Deep.2017.WEB-DL.720p.NNMCLUB
    Дата кодирования : UTC 2017-09-02 16: 04: 21
    Программа кодирования : mkvmerge v15.0.0 (\'Duel with the Devil\') 64-bit
    Библиотека кодирования : libebml v1.3.5 + libmatroska v1.4.5
    Видео
    Идентификатор : 1
    Формат : AVC
    Формат/Информация : Advanced Video Codec
    Профиль формата : High@L3.1
    Параметр CABAC формата : Нет
    Параметр RefFrames формата : 2 кадра
    Идентификатор кодека : V_MPEG4/ISO/AVC
    Продолжительность : 1 ч. 32 м.
    Битрейт : 4045 Кбит/сек
    Ширина : 1280 пикселей
    Высота : 688 пикселей
    Соотношение сторон : 1, 85: 1
    Режим частоты кадров : Постоянный
    Частота кадров : 23, 976 (24000/1001) кадра/сек
    Цветовое пространство : YUV
    Субдискретизация насыщенности : 4: 2: 0
    Битовая глубина : 8 бит
    Тип развёртки : Прогрессивная
    Бит/(Пиксели*Кадры) : 0.192
    Размер потока : 2, 62 Гбайт (87%)
    Заголовок : Подводная эра_Deep.2017.WEB-DL.720p.NNMCLUB
    Язык : English
    Default : Нет
    Forced : Нет
    Цветовой диапазон : Limited
    Основные цвета : BT.709
    Характеристики трансфера : BT.709
    Коэффициенты матрицы : BT.709
    Аудио #1
    Идентификатор : 2
    Формат : AC-3
    Формат/Информация : Audio Coding 3
    Параметр Endianness формата : Big
    Идентификатор кодека : A_AC3
    Продолжительность : 1 ч. 32 м.
    Вид битрейта : Постоянный
    Битрейт : 192 Кбит/сек
    Каналы : 2 канала
    Расположение каналов : Front: L R
    Частота : 48, 0 КГц
    Частота кадров : 31, 250 кадров/сек (1536 SPF)
    Битовая глубина : 16 бит
    Метод сжатия : С потерями
    Размер потока : 127 Мбайт (4%)
    Заголовок : Дублированный (iTunes)
    Язык : Russian
    ServiceKind/String : Complete Main
    Default : Да
    Forced : Нет
    Аудио #2
    Идентификатор : 3
    Формат : AC-3
    Формат/Информация : Audio Coding 3
    Параметр Endianness формата : Big
    Идентификатор кодека : A_AC3
    Продолжительность : 1 ч. 32 м.
    Вид битрейта : Постоянный
    Битрейт : 384 Кбит/сек
    Каналы : 6 каналов
    Расположение каналов : Front: L C R, Side: L R, LFE
    Частота : 48, 0 КГц
    Частота кадров : 31, 250 кадров/сек (1536 SPF)
    Битовая глубина : 16 бит
    Метод сжатия : С потерями
    Размер потока : 254 Мбайт (8%)
    Язык : English
    ServiceKind/String : Complete Main
    Default : Нет
    Forced : Нет
    Текст
    Идентификатор : 4
    Формат : UTF-8
    Идентификатор кодека : S_TEXT/UTF8
    Идентификатор кодека/Информация : UTF-8 Plain Text
    Продолжительность : 1 ч. Самое интересное в это истории, что об этом Горбачев ничего не знал. 31 м.
    Битрейт : 84 бит/сек
    ElementCount : 1784
    Размер потока : 57, 1 Кбайт (0%)
    Язык : English
    Default : Нет
    Forced : Нет
    Меню
    00: 00: 00.000 : en: 1
    00: 02: 02.000 : en: 2
    00: 11: 58.000 : en: 3
    00: 20: 08.000 : en: 4
    00: 28: 34.000 : en: 5
    00: 38: 03.000 : en: 6
    00: 47: 03.000 : en: 7
    00: 57: 09.000 : en: 8
    01: 05: 55.000 : en: 9
    01: 15: 23.000 : en: 10
    01: 27: 22.000 : en: 11

    Скриншоты для ознакомления



    Все одноименные релизы в Клубе
    Время раздачи: 24/7 (до появления первых 3-5 скачавших)

    Онлайн видео Подводная эра



    Подводная эра/Deep (2017) WEB-DL [H.264/720p-LQ]
    загрузка...
    Рейтинг →
     (голосов: 1, оценка 4/5, голосовать можно 1 раз )

    Другие торренты по теме:

  • Подводная эра / Deep (2017) WEB-DL [H.264 / 720p-LQ] [EN]
  • Подводная эра / Deep (2017) WEB-DLRip [Звук с TS] [AD]
  • Подводная эра / Deep (2017) WEB-DLRip
  • Подводная эра / Deep (2017) WEB-DLRip [H.264]


    • Комментарии (0):

      Информация

      Информация

        Посетители, находящиеся в группе Гости, не могут оставлять комментарии в данной новости.

        ↓ Меню




        ↓ Опрос

        Вы добавили сайт в закладки?
        Да
        Нет


        Top 10 за месяц (Мультфильмы)

        МиниФорс / MiniForce (2017) WEB-DLRip [H.264 / 720p-LQ] (сезон 1, серии 1-26) [Обновляемая]

        (скачиваний: 38)
        Русалочка (1976) DVD9

        (скачиваний: 9)
        К.М. Баранова и др. | Английский язык. Лексический практикум. 11 класс. Starlight 11 Vocabulary Practice. (2013) [PDF, JPG] скачать через торрент бесплатно

        (скачиваний: 7)
        София Прекрасная: Как стать принцессой / Sofia the First (2017) WEBRip (4 сезон: 1-4 серии из )

        (скачиваний: 6)
        Королевская академия / Regal Academy (2016) SATRip [H.264] (Сезон 1, 26 серий из 26) [UKR]

        (скачиваний: 5)
        О.М. Авраменко, М.Б. Блажко | Украинский язык и литература. Справочник. Задания в тестовой форме. Часть I (2015) [PDF] скачать через торрент бесплатно

        (скачиваний: 5)
        Лисица / Виксен / Vixen (2016) WEB-DL [H.264 / 1080p-LQ] (Сезон 2, серии 6 из 6) Lostfilm

        (скачиваний: 4)
        Kara no Shoujo / Девушка в скорлупе (2008) [Ru / En] Repack

        (скачиваний: 4)
        Самурай Джек / Samurai Jack (2017) WEB-DL [H.264 / 1080p-LQ] (Сезон 5, серии 1 из 10)

        (скачиваний: 4)
        С.Е. Гаврина и др. | Школа для дошколят. Сборник книг [2002-2006] [DJVU] (21 книга)

        (скачиваний: 4)