.
Авторизация | Регистрация
Хочешь лучшие торренты? Добавь свой email!
Добавить

Торрент скачать бесплатно

» » Принц-медведь / Der Prinz im Barenfell (2015) HDTVRip [H.264 / 720p] [MVO] торрент скачать бесплатно




    Принц-медведь / Der Prinz im Barenfell (2015) HDTVRip [H.264 / 720p] [MVO] торрент скачать бесплатно

    Опубликовал: Админ | Дата: 3-09-2017, 05:00 | Просмотров: 0

    Производство: Германия | Askania Media Filmproduktion GmbH, ProSaar
    Жанр: Фэнтези, Семейный
    Режиссер: Бодо Фюрнайзен

    Актеры
    Максимилиан Бефорт, Мира Элиза Горес, Мирослав Немец, Вильфрид Хохгольдингер, Кристиан Грасхоф, Инга Буш, Nora Hickler, Киран Уэст, Гвидо Фёрвайсер

    Описание

    Давным-давно в далёком королевстве жил капризный и ветреный принц Мариус. Однажды он попал в ловушку колдуна, и тот превратил его в косматое чудовище. Спасти королевича от проклятия сможет только искренняя любовь.

    Возраст: 0+ (для любой зрительской аудитории)
    Рейтинг MPAA: G (нет возрастных ограничений)
    Продолжительность: 00: 58: 57
    Качество видео: HDTVRip 720p
    Перевод: Многоголосый закадровый (Игмар)
    Субтитры: отсутствуют
    Видео: AVC/H.264, 1280x720 (16: 9), 25.000 fps, 5901 Kbps (0.256 bit/pixel)
    Аудио #1: AC-3, 48.0 KHz, 2 ch, 192 Kbps, CBR (Русский)
    Аудио #2: AC-3, 48.0 KHz, 2 ch, 192 Kbps, CBR (Немецкий)

    Complete name : Der Prinz im Barenfell (2015) HDTVRip.720p.mkv
    Format : Matroska
    Format version : Version 4/Version 2
    File size : 2.64 GiB
    Duration : 58mn 57s
    Overall bit rate : 6 413 Kbps
    Encoded date : UTC 2017-02-02 20: 59: 17
    Writing application : mkvmerge v8.3.0 (\'Over the Horizon\') 32bit
    Writing library : libebml v1.3.1 + libmatroska v1.4.2
    DURATION : 00: 58: 57.312000000
    NUMBER_OF_FRAMES : 110541
    NUMBER_OF_BYTES : 84895488
    _STATISTICS_WRITING_APP : mkvmerge v8.3.0 (\'Over the Horizon\') 32bit
    _STATISTICS_WRITING_DATE_UT : 2017-02-02 20: 59: 17
    _STATISTICS_TAGS : BPS DURATION NUMBER_OF_FRAMES NUMBER_OF_BYTES
    Video
    ID : 1
    Format : AVC
    Format/Info : Advanced Video Codec
    Format profile : High@L3.1
    Format settings, CABAC : Yes
    Format settings, ReFrames : 5 frames
    Codec ID : V_MPEG4/ISO/AVC
    Duration : 58mn 57s
    Bit rate : 5 901 Kbps
    Width : 1 280 pixels
    Height : 720 pixels
    Display aspect ratio : 16: 9
    Frame rate mode : Constant
    Frame rate : 25.000 fps
    Color space : YUV
    Chroma subsampling : 4: 2: 0
    Bit depth : 8 bits
    Scan type : Progressive
    Bits/(Pixel*Frame) : 0.256
    Stream size : 2.43 GiB (92%)
    Writing library : x264 core 146 r2538 121396c
    Encoding settings : cabac=1/ref=5/deblock=1: -1: -1/analyse=0x3: 0x113/me=umh/subme=8/psy=1/psy_rd=1.00: 0.15/mixed_ref=1/me_range=16/chroma_me=1/trellis=1/8x8dct=1/cqm=0/deadzone=21, 11/fast_pskip=1/chroma_qp_offset=-3/threads=12/lookahead_threads=2/sliced_threads=0/nr=0/decimate=1/interlaced=0/bluray_compat=0/constrained_intra=0/bframes=3/b_pyramid=2/b_adapt=2/b_bias=0/direct=3/weightb=1/open_gop=0/weightp=2/keyint=250/keyint_min=24/scenecut=40/intra_refresh=0/rc_lookahead=50/rc=crf/mbtree=1/crf=18.0/qcomp=0.60/qpmin=0/qpmax=69/qpstep=4/ip_ratio=1.40/aq=1: 1.00
    Language : German
    Default : Yes
    Forced : No
    Audio #1
    ID : 2
    Format : AC-3
    Format/Info : Audio Coding 3
    Mode extension : CM (complete main)
    Format settings, Endianness : Big
    Codec ID : A_AC3
    Duration : 58mn 57s
    Bit rate mode : Constant
    Bit rate : 192 Kbps
    Channel(s) : 2 channels
    Channel positions : Front: L R
    Sampling rate : 48.0 KHz
    Compression mode : Lossy
    Stream size : 81.0 MiB (3%)
    Title : MVO (Игмар)
    Language : Russian
    Default : Yes
    Forced : No
    Audio #2
    ID : 3
    Format : AC-3
    Format/Info : Audio Coding 3
    Mode extension : CM (complete main)
    Format settings, Endianness : Big
    Codec ID : A_AC3
    Duration : 58mn 57s
    Bit rate mode : Constant
    Bit rate : 192 Kbps
    Channel(s) : 2 channels
    Channel positions : Front: L R
    Sampling rate : 48.0 KHz
    Compression mode : Lossy
    Stream size : 81.0 MiB (3%)
    Title : GER
    Language : German
    Default : No
    Forced : No

    Скриншоты для ознакомления



    Все одноименные релизы в Клубе
    Смотрите также другиемои раздачи
    Время раздачи: С 08: 00 до 23: 00 (до появления первых 3-5 скачавших)

    Онлайн видео Принц-медведь



    Принц-медведь/Der Prinz im Barenfell (2015) HDTVRip [H.264/720p] [MVO]
    загрузка...
    Рейтинг →
     (голосов: 1, оценка 5/5, голосовать можно 1 раз )

    Другие торренты по теме:

  • Принц-медведь / Der Prinz im Barenfell (2015) DVB


    • Комментарии (0):

      Информация

      Информация

        Посетители, находящиеся в группе Гости, не могут оставлять комментарии в данной новости.

        ↓ Меню




        ↓ Опрос

        Вы добавили сайт в закладки?
        Да
        Нет


        Top 10 за месяц (Мультфильмы)

        МиниФорс / MiniForce (2017) WEB-DLRip [H.264 / 720p-LQ] (сезон 1, серии 1-26) [Обновляемая]

        (скачиваний: 38)
        Русалочка (1976) DVD9

        (скачиваний: 9)
        К.М. Баранова и др. | Английский язык. Лексический практикум. 11 класс. Starlight 11 Vocabulary Practice. (2013) [PDF, JPG] скачать через торрент бесплатно

        (скачиваний: 7)
        София Прекрасная: Как стать принцессой / Sofia the First (2017) WEBRip (4 сезон: 1-4 серии из )

        (скачиваний: 6)
        О.М. Авраменко, М.Б. Блажко | Украинский язык и литература. Справочник. Задания в тестовой форме. Часть I (2015) [PDF] скачать через торрент бесплатно

        (скачиваний: 5)
        Королевская академия / Regal Academy (2016) SATRip [H.264] (Сезон 1, 26 серий из 26) [UKR]

        (скачиваний: 5)
        С.Е. Гаврина и др. | Школа для дошколят. Сборник книг [2002-2006] [DJVU] (21 книга)

        (скачиваний: 4)
        Mahou Tsukai no Yome: Hoshi Matsu Hito / The Ancient Magus Bride: Those Awaiting a Star / Невеста чародея: В ожидании путеводной звезды [2017, OVA, 3 ep] WEB-DL 720p Raw+Rus

        (скачиваний: 4)
        Доктор Машинкова / Doctor Mac Wheelie (2014) WEBRip [H.264 / 720p-LQ] (сезон 1, серии 1-33 из ) (Обновляемая)

        (скачиваний: 4)
        Джин Хэйнс | Мир акварели. Техники, эксперименты, практические советы (2017) [PDF]

        (скачиваний: 4)