.
Авторизация | Регистрация
Хочешь лучшие торренты? Добавь свой email!
Добавить

Торрент скачать бесплатно

» » Сказка о том, кто ходил страху учиться / Von einem, der auszog, das Furchten zu lernen (2014) HDTVRip [H.264 / 1080p-LQ] [MVO, VO] торрент скачать бесплатно




    Сказка о том, кто ходил страху учиться / Von einem, der auszog, das Furchten zu lernen (2014) HDTVRip [H.264 / 1080p-LQ] [MVO, VO] торрент скачать бесплатно

    Опубликовал: Админ | Дата: 3-09-2017, 05:00 | Просмотров: 0

    Производство: Германия | Bremedia Produktion, Das Erste (ARD), Nordmedia Fonds
    Жанр: Фэнтези, Семейный
    Режиссер: Тобиаш Виеманн

    Актеры
    Изольда Дихаук, Тим Оливер Шульц, Хайнер Лаутербах, Рик Каваниан, Милан Пешель

    Описание

    Младший из двух сыновей горшечника, Михель, — тоже горшечник, и в этом он, собственно, ничем не отличается от отца с братом. Но есть у него одна особенность, которая отличает его от всех — он не умеет бояться, он даже представить себе не может, что такое страх. Брат смеется над ним, отец негодует, а ему хоть бы что. Жил бы он себе так и жил, но однажды, гуляя в лесу, встретил очень красивую девушку, принцессу, в которую тут же влюбился. Брат не упустил случая снова подтрунить над ним, - дескать куда тебе, даже бояться не умеешь. Теперь Михель твердо решил во что бы то ни стало избавиться от этого недостатка и отправился учиться страху…

    Возраст: 0+ (для любой зрительской аудитории)
    Рейтинг MPAA: G (нет возрастных ограничений)
    Продолжительность: 00: 58: 10
    Качество видео: HDTVRip 1080p-LQ
    Перевод: Многоголосый закадровый (Игмар), одноголосый закадровый (Павел Морозов)
    Субтитры: Русские (Алексей Королёв)
    Видео: AVC/H.264, 1920x1080 (16: 9), 25.000 fps, 4753 Kbps (0.091 bit/pixel)
    Аудио #1: AC-3, 48.0 KHz, 2 ch, 192 Kbps, CBR (Русский, (Игмар))
    Аудио #2: AC-3, 48.0 KHz, 2 ch, 192 Kbps, CBR (Русский, (Павел Морозов))
    Аудио #3: AC-3, 48.0 KHz, 2 ch, 192 Kbps, CBR (Немецкий)

    Complete name : Von einem, der auszog, das Furchten zu lernen .2014. HDTVRip.1080p-LQ.mkv
    Format : Matroska
    Format version : Version 4/Version 2
    File size : 2.21 GiB
    Duration : 58mn 10s
    Overall bit rate : 5 437 Kbps
    Encoded date : UTC 2016-11-21 10: 37: 24
    Writing application : mkvmerge v8.3.0 (\'Over the Horizon\') 32bit
    Writing library : libebml v1.3.1 + libmatroska v1.4.2
    DURATION : 00: 22: 48.060000000
    NUMBER_OF_FRAMES : 10
    NUMBER_OF_BYTES : 864
    _STATISTICS_WRITING_APP : mkvmerge v8.3.0 (\'Over the Horizon\') 32bit
    _STATISTICS_WRITING_DATE_UT : 2016-11-21 10: 37: 24
    _STATISTICS_TAGS : BPS DURATION NUMBER_OF_FRAMES NUMBER_OF_BYTES
    Video
    ID : 1
    Format : AVC
    Format/Info : Advanced Video Codec
    Format profile : High@L4
    Format settings, CABAC : Yes
    Format settings, ReFrames : 4 frames
    Codec ID : V_MPEG4/ISO/AVC
    Duration : 58mn 10s
    Bit rate : 4 753 Kbps
    Width : 1 920 pixels
    Height : 1 088 pixels
    Original height : 1 080 pixels
    Display aspect ratio : 16: 9
    Original display aspect rat : 16: 9
    Frame rate mode : Constant
    Frame rate : 25.000 fps
    Color space : YUV
    Chroma subsampling : 4: 2: 0
    Bit depth : 8 bits
    Scan type : MBAFF
    Scan order : Top Field First
    Bits/(Pixel*Frame) : 0.091
    Stream size : 1.93 GiB (87%)
    Language : German
    Default : Yes
    Forced : No
    DURATION : 00: 58: 09.960000000
    NUMBER_OF_FRAMES : 87249
    NUMBER_OF_BYTES : 2119412903
    _STATISTICS_WRITING_APP : mkvmerge v8.3.0 (\'Over the Horizon\') 32bit
    _STATISTICS_WRITING_DATE_UT : 2016-11-21 10: 37: 24
    _STATISTICS_TAGS : BPS DURATION NUMBER_OF_FRAMES NUMBER_OF_BYTES
    Audio #1
    ID : 2
    Format : AC-3
    Format/Info : Audio Coding 3
    Mode extension : CM (complete main)
    Format settings, Endianness : Big
    Codec ID : A_AC3
    Duration : 58mn 10s
    Bit rate mode : Constant
    Bit rate : 192 Kbps
    Channel(s) : 2 channels
    Channel positions : Front: L R
    Sampling rate : 48.0 KHz
    Compression mode : Lossy
    Delay relative to video : -120ms
    Stream size : 79.9 MiB (4%)
    Title : MVO (Игмар)
    Language : Russian
    Default : Yes
    Forced : No
    Audio #2
    ID : 3
    Format : AC-3
    Format/Info : Audio Coding 3
    Mode extension : CM (complete main)
    Format settings, Endianness : Big
    Codec ID : A_AC3
    Duration : 58mn 10s
    Bit rate mode : Constant
    Bit rate : 192 Kbps
    Channel(s) : 2 channels
    Channel positions : Front: L R
    Sampling rate : 48.0 KHz
    Compression mode : Lossy
    Delay relative to video : -120ms
    Stream size : 79.9 MiB (4%)
    Title : VO (Павел Морозов)
    Language : Russian
    Default : No
    Forced : No
    Audio #3
    ID : 4
    Format : AC-3
    Format/Info : Audio Coding 3
    Mode extension : CM (complete main)
    Format settings, Endianness : Big
    Codec ID : A_AC3
    Duration : 58mn 10s
    Bit rate mode : Constant
    Bit rate : 192 Kbps
    Channel(s) : 2 channels
    Channel positions : Front: L R
    Sampling rate : 48.0 KHz
    Compression mode : Lossy
    Delay relative to video : -120ms
    Stream size : 79.9 MiB (4%)
    Title : GER
    Language : German
    Default : No
    Forced : No
    Text #1
    ID : 5
    Format : UTF-8
    Codec ID : S_TEXT/UTF8
    Codec ID/Info : UTF-8 Plain Text
    Title : Forced
    Language : Russian
    Default : Yes
    Forced : Yes
    Text #2
    ID : 6
    Format : UTF-8
    Codec ID : S_TEXT/UTF8
    Codec ID/Info : UTF-8 Plain Text
    Title : Full (Алексей Королёв)
    Language : Russian
    Default : No
    Forced : No

    Скриншоты для ознакомления



    Все одноименные релизы в Клубе
    Смотрите также другиемои раздачи
    Время раздачи: С 08: 00 до 23: 00 (до появления первых 3-5 скачавших)

    Онлайн видео Сказка о том, кто ходил страху учиться



    Сказка о том, кто ходил страху учиться/Von einem, der auszog, das Furchten zu lernen (2014) HDTVRip [H.264/1080p-LQ] [MVO, VO]
    загрузка...
    Рейтинг →
     (голосов: 1, оценка 5/5, голосовать можно 1 раз )

    Другие торренты по теме:

  • Сказка о том, кто ходил страху учиться / Von einem, der auszog, das Furchten zu lernen (2014) DVB


    • Комментарии (0):

      Информация

      Информация

        Посетители, находящиеся в группе Гости, не могут оставлять комментарии в данной новости.

        ↓ Меню




        ↓ Опрос

        Вы добавили сайт в закладки?
        Да
        Нет


        Top 10 за месяц (Мультфильмы)

        МиниФорс / MiniForce (2017) WEB-DLRip [H.264 / 720p-LQ] (сезон 1, серии 1-26) [Обновляемая]

        (скачиваний: 38)
        О.В. Кишенкова | ОГЭ 2018. Обществознание: тренировочные задания (2017) [PDF]

        (скачиваний: 9)
        Русалочка (1976) DVD9

        (скачиваний: 9)
        Герои Энвелла (2017) WEB-DLRip [H.264 / 720p-LQ] (сезон 1, серия 01 из 26) [Обновляемая]

        (скачиваний: 8)
        К.М. Баранова и др. | Английский язык. Лексический практикум. 11 класс. Starlight 11 Vocabulary Practice. (2013) [PDF, JPG] скачать через торрент бесплатно

        (скачиваний: 7)
        София Прекрасная: Как стать принцессой / Sofia the First (2017) WEBRip (4 сезон: 1-4 серии из )

        (скачиваний: 6)
        О.М. Авраменко, М.Б. Блажко | Украинский язык и литература. Справочник. Задания в тестовой форме. Часть I (2015) [PDF] скачать через торрент бесплатно

        (скачиваний: 5)
        Королевская академия / Regal Academy (2016) SATRip [H.264] (Сезон 1, 26 серий из 26) [UKR]

        (скачиваний: 5)
        Mahou Tsukai no Yome: Hoshi Matsu Hito / The Ancient Magus Bride: Those Awaiting a Star / Невеста чародея: В ожидании путеводной звезды [2017, OVA, 3 ep] WEB-DL 720p Raw+Rus

        (скачиваний: 4)
        Лисица / Виксен / Vixen (2016) WEB-DL [H.264 / 1080p-LQ] (Сезон 2, серии 6 из 6) Lostfilm

        (скачиваний: 4)