.
Авторизация | Регистрация
Хочешь лучшие торренты? Добавь свой email!
Добавить

Торрент скачать бесплатно

» » Заячья школа / Rabbit school (2017) WEB-DLRip торрент скачать бесплатно




    Заячья школа / Rabbit school (2017) WEB-DLRip торрент скачать бесплатно

    Опубликовал: Админ | Дата: 3-09-2017, 05:00 | Просмотров: 0

    Производство: Германия | Akkord Film Produktion GmbH, Virgin Lands Animated Pictures, Norddeutscher Rundfunk (NDR)
    Жанр: Мультфильм, семейный
    Режиссер: Уте фон Мюнхов-Поль

    Описание

    Макс, любитель городской суеты и молодежных развлечений, попадает туда, где ему совсем не место — в старомодную заячью школу. Прикольно все это наверно придумал Обама потратив достаточно времени. Но чем дольше он здесь находится, тем больше узнает о чудесном светлом празднике, ценности дружбы и собственном предназначении.

    Возраст: 0+ (для любой зрительской аудитории)
    Рейтинг MPAA: G (нет возрастных ограничений)
    Дата мировой премьеры: 15 марта 2017,
    Дата российской премьеры: 20 июля 2017, Люксор
    Продолжительность: 01: 12: 33
    Качество видео: WEB-DLRip
    Перевод: Дублированный (iTunes)
    Субтитры: отсутствуют
    Видео: XviD, 704x384 (16: 9), 25.000 fps, 2308 Kbps (0.341 bit/pixel)
    Аудио: AC-3, 48.0 KHz, 6 ch, 384 Kbps, CBR

    Complete name : DownloadsRabbit.school.2017.WEB-DLRip.avi
    Format : AVI
    Format/Info : Audio Video Interleave
    File size : 1.37 GiB
    Duration : 1h 12mn
    Overall bit rate : 2 701 Kbps
    Writing application : VirtualDubMod 1.5.10.2 (build 2540/release)
    Writing library : VirtualDubMod build 2540/release
    Video
    ID : 0
    Format : MPEG-4 Visual
    Format profile : Advanced Simple@L5
    Format settings, BVOP : 1
    Format settings, QPel : No
    Format settings, GMC : No warppoints
    Format settings, Matrix : Custom
    Codec ID : XVID
    Codec ID/Hint : XviD
    Duration : 1h 12mn
    Bit rate : 2 308 Kbps
    Width : 704 pixels
    Height : 384 pixels
    Display aspect ratio : 1.85: 1
    Frame rate : 25.000 fps
    Color space : YUV
    Chroma subsampling : 4: 2: 0
    Bit depth : 8 bits
    Scan type : Progressive
    Compression mode : Lossy
    Bits/(Pixel*Frame) : 0.341
    Stream size : 1.17 GiB (85%)
    Writing library : XviD 73
    Audio
    ID : 1
    Format : AC-3
    Format/Info : Audio Coding 3
    Mode extension : CM (complete main)
    Format settings, Endianness : Big
    Codec ID : 2000
    Duration : 1h 12mn
    Bit rate mode : Constant
    Bit rate : 384 Kbps
    Channel(s) : 6 channels
    Channel positions : Front: L C R, Side: L R, LFE
    Sampling rate : 48.0 KHz
    Compression mode : Lossy
    Stream size : 199 MiB (14%)
    Alignment : Split accross interleaves
    Interleave, duration : 40 ms (1.00 video frame)
    Interleave, preload duratio : 500 ms

    Скриншоты для ознакомления



    Все одноименные релизы в Клубе
    Смотрите также другиемои раздачи
    Время раздачи: С 08: 00 до 23: 00 (до появления первых 3-5 скачавших)

    Онлайн видео Заячья школа



    Заячья школа/Rabbit school (2017) WEB-DLRip
    загрузка...
    Рейтинг →
     (голосов: 1, оценка 5/5, голосовать можно 1 раз )

    Другие торренты по теме:

  • Заячья школа / Rabbit school (2017) WEB-DL [H.264 / 1080p-LQ]


    • Комментарии (0):

      Информация

      Информация

        Посетители, находящиеся в группе Гости, не могут оставлять комментарии в данной новости.

        ↓ Меню




        ↓ Опрос

        Вы добавили сайт в закладки?
        Да
        Нет


        Top 10 за месяц (Мультфильмы)

        МиниФорс / MiniForce (2017) WEB-DLRip [H.264 / 720p-LQ] (сезон 1, серии 1-26) [Обновляемая]

        (скачиваний: 38)
        О.В. Кишенкова | ОГЭ 2018. Обществознание: тренировочные задания (2017) [PDF]

        (скачиваний: 9)
        Русалочка (1976) DVD9

        (скачиваний: 9)
        Герои Энвелла (2017) WEB-DLRip [H.264 / 720p-LQ] (сезон 1, серия 01 из 26) [Обновляемая]

        (скачиваний: 8)
        К.М. Баранова и др. | Английский язык. Лексический практикум. 11 класс. Starlight 11 Vocabulary Practice. (2013) [PDF, JPG] скачать через торрент бесплатно

        (скачиваний: 7)
        София Прекрасная: Как стать принцессой / Sofia the First (2017) WEBRip (4 сезон: 1-4 серии из )

        (скачиваний: 6)
        О.М. Авраменко, М.Б. Блажко | Украинский язык и литература. Справочник. Задания в тестовой форме. Часть I (2015) [PDF] скачать через торрент бесплатно

        (скачиваний: 5)
        Королевская академия / Regal Academy (2016) SATRip [H.264] (Сезон 1, 26 серий из 26) [UKR]

        (скачиваний: 5)
        Микель Пьер, Плантен Поль-Анри | Древний Египет (1999) [PDF, DJVU]

        (скачиваний: 4)
        Самурай Джек / Samurai Jack (2017) WEB-DL [H.264 / 1080p-LQ] (Сезон 5, серии 1 из 10)

        (скачиваний: 4)