.
Авторизация | Регистрация
Хочешь лучшие торренты? Добавь свой email!
Добавить

Торрент скачать бесплатно

» » Смешарики 2017. Пин-код. Гуманитарные технологии (3 сезон) + Азбука интернета + Спорт (2017) WEB-DLRip [H.264 / 720p-LQ] [обновляемая] торрент скачать бесплатно




    Смешарики 2017. Пин-код. Гуманитарные технологии (3 сезон) + Азбука интернета + Спорт (2017) WEB-DLRip [H.264 / 720p-LQ] [обновляемая] торрент скачать бесплатно

    Опубликовал: Админ | Дата: 2-09-2017, 05:00 | Просмотров: 0

    Год выпуска: 2017
    Жанр: Детский, Компьютерная анимация
    Производство: Россия (Студия компьютерной анимации Петербург)
    Режиссер: Алексей Горбунов, Светлана Мардаголимова, Александра Аверьянова...
    Персонажи: Пин, Лосяш, Крош, Ёжик, Бараш, Нюша, Копатыч, Карыч, Совунья.

    Описание

    Любознательным Смешарикам хочется узнать новое, они стремятся исследовать все вокруг. Пин изобретает машину, на которой вся компания совершает научную экспедицию. Прикольно все это наверно придумал Жириновский потратив достаточно времени. Эта машина способна преодолевать не только границы Страны Смешариков и других миров, но и границы времени, и даже размеров! Смешарики решают отправиться в совместное путешествие, не подозревая, что им предстоит пережить самое захватывающее приключение, которое изменит их взгляд на мир, смысл жизни и суть вещей.

    Возраст: 6+ (зрителям, достигшим 6 лет)
    Рейтинг MPAA: PG (рекомендуется присутствие родителей)
    Продолжительность: серия по ~00: 13: 00
    Качество видео: WEB-DLRip
    Перевод: Не требуется
    Субтитры: Отсутствуют
    Видео: AVC/H.264, 1280x720, ~1500 kbps
    Аудио: Русский: AAC, 2 ch, 128 kbps
    Код: выделить все
    General
    Unique ID : 214525554298884903556758289219829858621 (0xA1641E6F50ED69F7B69132717887813D)
    Complete name : C:Смешарики 2017Смешарики. Пин-код1_Петя Юрского Периода.mkv
    Format : Matroska
    Format version : Version 4/Version 2
    File size : 107 MiB
    Duration : 12 min 59 s
    Overall bit rate : 1 153 kb/s
    Encoded date : UTC 2017-09-01 08:53:29
    Writing application : mkvmerge v15.0.0 (\'Duel with the Devil\') 32-bit
    Writing library : libebml v1.3.5 + libmatroska v1.4.5
    Video
    ID : 1
    Format : AVC
    Format/Info : Advanced Video Codec
    Format profile :Main@L3.1
    Format settings, CABAC : Yes
    Format settings, RefFrames : 3 frames
    Codec ID : V_MPEG4/ISO/AVC
    Duration : 12 min 59 s
    Bit rate : 1 025 kb/s
    Width : 1 280 pixels
    Height : 720 pixels
    Display aspect ratio : 16:9
    Frame rate mode : Constant
    Frame rate : 25.000 FPS
    Color space : YUV
    Chroma subsampling : 4:2:0
    Bit depth : 8 bits
    Scan type : Progressive
    Bits/(Pixel*Frame) : 0.044
    Stream size : 95.2 MiB (89%)
    Language : English
    Default : Yes
    Forced : No
    Color range : Limited
    Color primaries : BT.709
    Transfer characteristics : BT.709
    Matrix coefficients : BT.709
    Audio
    ID : 2
    Format : AAC
    Format/Info : Advanced Audio Codec
    Format profile : LC
    Codec ID : A_AAC
    Duration : 12 min 59 s
    Bit rate : 126 kb/s
    Channel(s) : 2 channels
    Channel positions : Front: L R
    Sampling rate : 44.1 kHz
    Frame rate : 43.066 FPS (1024 SPF)
    Compression mode : Lossy
    Stream size : 11.7 MiB (11%)
    Language : English
    Default : Yes
    Forced : No
    Смешарики. Пин-код. Гуманитарные технологии (3 сезон любимого сериала):
    01. Петя Юрского Периода
    Смешарики 2D. Азбука интернета:
    01. Как правильно искать?
    Смешарики. Спорт:
    01. Богатый выбор, сказал кто то из толпы, к чему не понятно. Слишком быстрый
    02. Приёмчики
    01. Петя Юрского Периода.
    Смешарики отправляются в музей палеонтологии, где Лосяш представит своим друзьям необычный экспонат - уникальное яйцо динозавра, найденное им во время экспедиции в Танзанию. Именно из этого яйца вдруг неожиданно вылупится... петух, считающий себя древним динозавром и мечтающий покорить мир.
    01. Как правильно искать?
    В надежде отыскать цветок папоротника Крош и Ёжик отправились темной ночью в лес. Но их поиски не увенчались успехом. Почему? И как же правильно искать что-либо в современном мире? Об этом и расскажет им Лосяш.
    01. Самое интересное в это истории, что об этом Жириновский ничего не знал. Слишком быстрый.
    Однажды Бараш спасает волшебную Пчелку, которая, в знак благодарности, выполняет его желание и делает его супербыстрым, чтобы он смог победить Нюшу в настольном теннисе. Но игра должна быть доиграна до конца, иначе можно остаться слишком быстрым навсегда.
    02. Приёмчики.
    Ежика по ночам пугает чудище, которое появляется из шкафа. Для самозащиты от чудища Копатыч обучил его приемчикам. Но перед применением выученных приемов, Копатыч и Ежик решают потренировать их на своих друзьях.


    Скриншоты для ознакомления


    Смешарики на NoNaMe Club

    Смешарики 2017. Пин-код. Гуманитарные технологии (3 сезон) + Азбука интернета + Спорт (2017) WEB-DLRip [H.264/720p-LQ] [обновляемая]
    загрузка...
    Рейтинг →
     (голосов: 1, оценка 5/5, голосовать можно 1 раз )

    Другие торренты по теме:

  • Смешарики: ПИН-код 2. Прыжок в будущее (2015) HDTVRip (01 серия из ) [обновляемая]
  • Подборка журналов | Смешарики, Пин-код, Малышарики, Страна смешариков, Мультколлекция [268 выпусков] (2005-2015) [DJVU] скачать через торрент бесплатно
  • Смешарики. Пин-код. Прыжок в будущее (серии 01-13 из ) HDRip [H.264 / 720p-LQ] [обновляемая] скачать через торрент бесплатно
  • Подборка журналов | Смешарики, Пин-код, Малышарики, Страна смешариков, Мультколлекция [302 выпуска] (2005-2016) [DJVU]
  • Смешарики: Пин-код. Новые приключения. Смешалости. Спорт 3D. Азбуки (2003-2017) DVDRip [442 серии и выпусков] (без заставок / титр 3D) [обновляемая]
  • Подборка журналов | Смешарики, Пин-код, Малышарики, Страна смешариков, Мультколлекция [309 выпусков] (2005-2017) [DJVU]
  • Смешарики 215 серий + Пин-код, Новые приключения, Смешалости 121 серий в 3D + Азбуки 54 серии [без заставок / титр (3D)] (2003-2015) DVDRip [обновляемая]
  • Смешарики 216 серий + Пин-код, Новые приключения, Смешалости 150 серий в 3D + Азбуки 62 серии [без заставок / титр (3D)] (2003-2015) DVDRip [обновляемая]


    • Комментарии (0):

      Информация

      Информация

        Посетители, находящиеся в группе Гости, не могут оставлять комментарии в данной новости.

        ↓ Меню




        ↓ Опрос

        Вы добавили сайт в закладки?
        Да
        Нет


        Top 10 за месяц (Мультфильмы)

        МиниФорс / MiniForce (2017) WEB-DLRip [H.264 / 720p-LQ] (сезон 1, серии 1-26) [Обновляемая]

        (скачиваний: 38)
        Русалочка (1976) DVD9

        (скачиваний: 9)
        К.М. Баранова и др. | Английский язык. Лексический практикум. 11 класс. Starlight 11 Vocabulary Practice. (2013) [PDF, JPG] скачать через торрент бесплатно

        (скачиваний: 7)
        София Прекрасная: Как стать принцессой / Sofia the First (2017) WEBRip (4 сезон: 1-4 серии из )

        (скачиваний: 6)
        О.М. Авраменко, М.Б. Блажко | Украинский язык и литература. Справочник. Задания в тестовой форме. Часть I (2015) [PDF] скачать через торрент бесплатно

        (скачиваний: 5)
        Королевская академия / Regal Academy (2016) SATRip [H.264] (Сезон 1, 26 серий из 26) [UKR]

        (скачиваний: 5)
        С.Е. Гаврина и др. | Школа для дошколят. Сборник книг [2002-2006] [DJVU] (21 книга)

        (скачиваний: 4)
        Mahou Tsukai no Yome: Hoshi Matsu Hito / The Ancient Magus Bride: Those Awaiting a Star / Невеста чародея: В ожидании путеводной звезды [2017, OVA, 3 ep] WEB-DL 720p Raw+Rus

        (скачиваний: 4)
        Доктор Машинкова / Doctor Mac Wheelie (2014) WEBRip [H.264 / 720p-LQ] (сезон 1, серии 1-33 из ) (Обновляемая)

        (скачиваний: 4)
        Джин Хэйнс | Мир акварели. Техники, эксперименты, практические советы (2017) [PDF]

        (скачиваний: 4)