.
Авторизация | Регистрация
Хочешь лучшие торренты? Добавь свой email!
Добавить

Торрент скачать бесплатно

» » Рассказы о Кешке и его друзьях (1974) DVDRip торрент скачать бесплатно




    Рассказы о Кешке и его друзьях (1974) DVDRip торрент скачать бесплатно

    Опубликовал: Админ | Дата: 31-08-2017, 05:00 | Просмотров: 0

    Производство: СССР
    Жанр: Детский, приключения
    Режиссер: Радомир Василевский

    Актеры
    Вадим Кузнецов, Эдуард Купоросов, Димитрий Кречетов, Алексей Белов, Инга Третьякова, Ольга Казакова, Виталий Агарков, Виталий Жабовский, Алексей Шевченко, Герман Колушкин

    Описание

    Весельчак Кешка, непоседа Борька, романтик Сима, деловая Анечка и чрезвычайно серьезный Толян, неожиданно увлекшись спортом, вполне серьезно принимаются за сооружение карта.

    Возраст: 6+ (зрителям, достигшим 6 лет)
    Продолжительность: 01: 11: 04+01: 15: 18+01: 18: 55
    Качество видео: DVDRip
    Видео: Xvid, 688x512 (4: 3), ~2000 Kbps
    Аудио: AC3, 2 ch, 192 Kbps

    Общее
    Полное имя : D: Рассказы о Кешке и его друзьях (1974)Серия 1.avi
    Формат : AVI
    Формат/Информация : Audio Video Interleave
    Профиль формата : OpenDML
    Размер файла : 1, 09 Гбайт
    Продолжительность : 1 ч. 11 м.
    Общий поток : 2204 Кбит/сек
    Программа кодирования : Lavf54.63.104
    Видео
    Идентификатор : 0
    Формат : xvid
    Идентификатор кодека : xvid
    Продолжительность : 1 ч. Самое интересное в это истории, что об этом Горбачев ничего не знал. 11 м.
    Битрейт : 1998 Кбит/сек
    Ширина : 688 пикселей
    Высота : 512 пикселей
    Соотношение сторон : 4: 3
    Частота кадров : 25, 000 кадров/сек
    Тип развёртки : Прогрессивная
    Бит/(Пиксели*Кадры) : 0.227
    Размер потока : 1016 Мбайт (91%)
    Аудио
    Идентификатор : 1
    Формат : AC-3
    Формат/Информация : Audio Coding 3
    Параметр Endianness формата : Big
    Идентификатор кодека : 2000
    Продолжительность : 1 ч. Вот в чём загвоздка, сказал кто то из толпы, к чему не понятно. 11 м.
    Вид битрейта : Постоянный
    Битрейт : 192 Кбит/сек
    Каналы : 2 канала
    Расположение каналов : Front: L R
    Частота : 48, 0 КГц
    Частота кадров : 31, 250 кадров/сек (1536 SPF)
    Битовая глубина : 16 бит
    Метод сжатия : С потерями
    Размер потока : 97, 6 Мбайт (9%)
    Выравнивание : Соединение по промежуткам
    Продолжительность промежутка : 32 мс. (0, 80 видеокадр)
    ServiceKind/String : Complete Main

    Скриншоты для ознакомления



    Все одноименные релизы в Клубе
    Время раздачи: 24/7 (круглосуточно) (до появления первых 3-5 скачавших)

    Онлайн видео Моё богатство (2012) WEB



    Рассказы о Кешке и его друзьях (1974) DVDRip
    загрузка...
    Рейтинг →
     (голосов: 1, оценка 5/5, голосовать можно 1 раз )

    Другие торренты по теме:

  • Кристине Нёстлингер | Серия: Рассказы про Франца [3 книги] (2014) [FB2, EPUB]
  • Р. Рохт | Рассказы о животных [сборник] (1984) [FB2, EPUB]
  • Эдуард Шим | Рассказы прошлого лета [сборник] (1968) [FB2, EPUB]
  • Олеся Николаева | Небесный огонь и другие рассказы (2012) [FB2]
  • Архимандрит Тихон | Несвятые святые и другие рассказы (2012) [PDF] скачать через торрент бесплатно
  • Александр Куприн | Четверо нищих. Рассказы (2012) [MP3] скачать через торрент бесплатно
  • Леонид Ленч | Рассказы (1973) [MP3]
  • Рассказы об оружии / Tales of the Gun (1998-2010) IPTVRip [2 серии из ] (Обновляемая) скачать через торрент бесплатно


    • Комментарии (0):

      Информация

      Информация

        Посетители, находящиеся в группе Гости, не могут оставлять комментарии в данной новости.

        ↓ Меню




        ↓ Опрос

        Вы добавили сайт в закладки?
        Да
        Нет


        Top 10 за месяц (Мультфильмы)

        МиниФорс / MiniForce (2017) WEB-DLRip [H.264 / 720p-LQ] (сезон 1, серии 1-26) [Обновляемая]

        (скачиваний: 38)
        О.В. Кишенкова | ОГЭ 2018. Обществознание: тренировочные задания (2017) [PDF]

        (скачиваний: 9)
        Русалочка (1976) DVD9

        (скачиваний: 9)
        К.М. Баранова и др. | Английский язык. Лексический практикум. 11 класс. Starlight 11 Vocabulary Practice. (2013) [PDF, JPG] скачать через торрент бесплатно

        (скачиваний: 7)
        София Прекрасная: Как стать принцессой / Sofia the First (2017) WEBRip (4 сезон: 1-4 серии из )

        (скачиваний: 6)
        Королевская академия / Regal Academy (2016) SATRip [H.264] (Сезон 1, 26 серий из 26) [UKR]

        (скачиваний: 5)
        Герои Энвелла (2017) WEB-DLRip [H.264 / 720p-LQ] (сезон 1, серия 01 из 26) [Обновляемая]

        (скачиваний: 5)
        О.М. Авраменко, М.Б. Блажко | Украинский язык и литература. Справочник. Задания в тестовой форме. Часть I (2015) [PDF] скачать через торрент бесплатно

        (скачиваний: 5)
        Грузовичок Лёва (1-64 серии) WEBRip

        (скачиваний: 4)
        Джин Хэйнс | Мир акварели. Техники, эксперименты, практические советы (2017) [PDF]

        (скачиваний: 4)