.
Авторизация | Регистрация
Хочешь лучшие торренты? Добавь свой email!
Добавить

Торрент скачать бесплатно

» » Моё богатство (2012) WEB-DLRip торрент скачать бесплатно




    Моё богатство (2012) WEB-DLRip торрент скачать бесплатно

    Опубликовал: Админ | Дата: 31-08-2017, 05:00 | Просмотров: 0

    Производство: Россия
    Жанр: Короткометражный, детский, драма
    Режиссер: Ярослав Чеважевский

    Актеры
    Эрик Холявко-Гришин, Даниил Меркулов, Ярослав Чеважевский, Влад Мезен, Мария Юнакова, Максим Клинцевич, Михаил Черноухо, Михаил Есьман, Ольга Носовская, Георгий Крайник

    Описание

    История двух мальчиков, Ромки и Ярослава, разворачивающаяся вокруг монеты в три копейки 1961 года.

    Продолжительность: 00: 09: 44
    Качество видео: WEB-DLRip
    Субтитры: Отсутствуют
    Видео: Xvid, 720x304 (2.35: 1), ~1939 kbps
    Аудио: AC3, 2 ch, 192 kbps

    General
    Complete name : D: _RUSSIAN3Moe Bogatstvo.avi
    Format : AVI
    Format/Info : Audio Video Interleave
    File size : 149 MiB
    Duration : 9 min 44 s
    Overall bit rate : 2 141 kb/s
    Writing application : VirtualDubMod 1.5.10.3 |www.virtualdub-fr.org|| (build 2550/release)
    Writing library : VirtualDubMod build 2550/release
    IsTruncated : Yes
    Video
    ID : 0
    Format : MPEG-4 Visual
    Format profile : Advanced Simple@L5
    Format settings, BVOP : 2
    Format settings, QPel : No
    Format settings, GMC : No warppoints
    Format settings, Matrix : Default (H.263)
    Codec ID : XVID
    Codec ID/Hint : XviD
    Duration : 9 min 44 s
    Bit rate : 1 939 kb/s
    Width : 720 pixels
    Height : 304 pixels
    Display aspect ratio : 2.35: 1
    Frame rate : 25.000 FPS
    Color space : YUV
    Chroma subsampling : 4: 2: 0
    Bit depth : 8 bits
    Scan type : Progressive
    Compression mode : Lossy
    Bits/(Pixel*Frame) : 0.354
    Stream size : 135 MiB (91%)
    Writing library : XviD 1.2.1 (UTC 2008-12-04)
    Audio
    ID : 1
    Format : AC-3
    Format/Info : Audio Coding 3
    Format settings, Endianness : Big
    Codec ID : 2000
    Duration : 9 min 44 s
    Bit rate mode : Constant
    Bit rate : 192 kb/s
    Channel(s) : 2 channels
    Channel positions : Front: L R
    Sampling rate : 48.0 kHz
    Frame rate : 31.250 FPS (1536 spf)
    Bit depth : 16 bits
    Compression mode : Lossy
    Stream size : 13.4 MiB (9%)
    Alignment : Split accross interleaves
    Interleave, duration : 40 ms (1.00 video frame)
    Interleave, preload duratio : 500 ms
    Service kind : Complete Main

    Скриншоты для ознакомления



    Все одноименные релизы в Клубе
    Время раздачи: 24/7 (до появления первых 3-5 скачавших)

    Онлайн видео Моё богатство (2012) WEB



    Моё богатство (2012) WEB-DLRip
    загрузка...
    Рейтинг →
     (голосов: 1, оценка 3/5, голосовать можно 1 раз )

    Другие торренты по теме:

  • Богатство в любви / Rich in Love (1992) HDTV [H.264 / 1080i]
  • Эбен Паган | Сделай богатство сам / Self-Made Wealth (2011) CamRip [H.264] [EN / RU Sub]
  • Рушель Блаво | Как во сне настроиться на богатство. Практика управляемых сновидений (2015) [FB2]
  • Эван Ознос | Век амбиций. Богатство, истина и вера в новом Китае (2016) [EPUB, FB2, MOBI]
  • Чарльз Диккенс | Богатство (2012) [MP3]


    • Комментарии (0):

      Информация

      Информация

        Посетители, находящиеся в группе Гости, не могут оставлять комментарии в данной новости.

        ↓ Меню




        ↓ Опрос

        Вы добавили сайт в закладки?
        Да
        Нет


        Top 10 за месяц (Мультфильмы)

        МиниФорс / MiniForce (2017) WEB-DLRip [H.264 / 720p-LQ] (сезон 1, серии 1-26) [Обновляемая]

        (скачиваний: 38)
        О.В. Кишенкова | ОГЭ 2018. Обществознание: тренировочные задания (2017) [PDF]

        (скачиваний: 9)
        Русалочка (1976) DVD9

        (скачиваний: 9)
        К.М. Баранова и др. | Английский язык. Лексический практикум. 11 класс. Starlight 11 Vocabulary Practice. (2013) [PDF, JPG] скачать через торрент бесплатно

        (скачиваний: 7)
        София Прекрасная: Как стать принцессой / Sofia the First (2017) WEBRip (4 сезон: 1-4 серии из )

        (скачиваний: 6)
        Королевская академия / Regal Academy (2016) SATRip [H.264] (Сезон 1, 26 серий из 26) [UKR]

        (скачиваний: 5)
        Герои Энвелла (2017) WEB-DLRip [H.264 / 720p-LQ] (сезон 1, серия 01 из 26) [Обновляемая]

        (скачиваний: 5)
        О.М. Авраменко, М.Б. Блажко | Украинский язык и литература. Справочник. Задания в тестовой форме. Часть I (2015) [PDF] скачать через торрент бесплатно

        (скачиваний: 5)
        Грузовичок Лёва (1-64 серии) WEBRip

        (скачиваний: 4)
        Джин Хэйнс | Мир акварели. Техники, эксперименты, практические советы (2017) [PDF]

        (скачиваний: 4)