.
Авторизация | Регистрация
Хочешь лучшие торренты? Добавь свой email!
Добавить

Торрент скачать бесплатно

» » Жил-был кот / Rudolf The Black Cat (2016) HDRip [H.264] торрент скачать бесплатно




    Жил-был кот / Rudolf The Black Cat (2016) HDRip [H.264] торрент скачать бесплатно

    Опубликовал: Админ | Дата: 29-08-2017, 05:00 | Просмотров: 0

    Производство: Япония, Канада
    Жанр: мультфильм, комедия, приключения
    Режиссер: Микинори Сакакибара, Кунихико Юяма
    Персонажи: Сандаю Докумамуси, Арата Фурута, Мао Иноуэ, Нана Мидзуки, Рио Сасаки, Рёхэй Судзуки, Юка Тэрасаки, Норито Ясима, Акио Оцука

    Описание

    История маленького чёрного котёнка с гордым именем Рудольф, жившего счастливо и спокойно ровно до тех пор, пока по роковой случайности он не оказался в неизвестном большом городе. Здесь герою придётся выживать без ласки и заботы хозяев, а ведь раньше он был твёрдо убежден, что всегда будет в полной безопасности.
    Блуждая по улицам незнакомого города, Рудо встречает взрослого полосатого кота, нагоняющего ужас на всю округу. Он становится для малыша наставником, учит жизни на улице и помогает обрести новых друзей.

    Дата мировой премьеры: 22 июня 2016
    Дата российской премьеры: 13 июля 2017, АКМ
    Продолжительность: 01: 28: 39
    Качество видео: HDRip
    Перевод: Дублированный
    Субтитры: отсутствуют.
    Видео: AVC/H.264, 736х416, ~1103 Kbps
    Аудио: AAC, 2 ch, 72 Kbps

    Zhil.byl.kot.2016.mkv
    Формат : Matroska
    Версия формата : Version 2
    Размер файла : 746 Мбайт
    Продолжительность : 1 ч. 28 м.
    Общий поток : 1177 Кбит/сек
    Дата кодирования : UTC 2017-08-28 09: 16: 49
    Программа кодирования : mkvmerge v15.0.0 (\'Duel with the Devil\') 64-bit
    Библиотека кодирования : libebml v1.3.5 + libmatroska v1.4.5
    Видео
    Идентификатор : 1
    Формат : AVC
    Формат/Информация : Advanced Video Codec
    Профиль формата : High@L4.1
    Параметр CABAC формата : Да
    Параметр RefFrames формата : 9 кадров
    Идентификатор кодека : V_MPEG4/ISO/AVC
    Продолжительность : 1 ч. 28 м.
    Битрейт : 1103 Кбит/сек
    Ширина : 736 пикселей
    Высота : 416 пикселей
    Соотношение сторон : 16: 9
    Режим частоты кадров : Постоянный
    Частота кадров : 23, 976 (24000/1001) кадра/сек
    Цветовое пространство : YUV
    Субдискретизация насыщенности : 4: 2: 0
    Битовая глубина : 8 бит
    Тип развёртки : Прогрессивная
    Бит/(Пиксели*Кадры) : 0.150
    Размер потока : 699 Мбайт (94%)
    Библиотека кодирования : x264 core 152 r2851kMod ba24899
    Настройки программы : cabac=1/ref=9/deblock=1: -2: -2/analyse=0x3: 0x113/me=umh/subme=9/psy=1/fade_compensate=0.00/psy_rd=1.00: 0.20/mixed_ref=1/me_range=32/chroma_me=1/trellis=1/8x8dct=1/cqm=0/deadzone=21, 11/fast_pskip=1/chroma_qp_offset=-3/threads=6/lookahead_threads=1/sliced_threads=0/nr=0/decimate=0/interlaced=0/bluray_compat=0/constrained_intra=0/bframes=9/b_pyramid=2/b_adapt=2/b_bias=0/direct=3/weightb=1/open_gop=0/weightp=2/keyint=240/keyint_min=23/scenecut=40/intra_refresh=0/rc_lookahead=40/rc=2pass/mbtree=1/bitrate=1103/ratetol=1.0/qcomp=0.60/qpmin=0/qpmax=69/qpstep=4/cplxblur=20.0/qblur=0.5/vbv_maxrate=50000/vbv_bufsize=62500/nal_hrd=none/filler=0/ip_ratio=1.40/aq=3: 1.00
    Default : Да
    Forced : Нет
    Аудио
    Идентификатор : 2
    Формат : AAC
    Формат/Информация : Advanced Audio Codec
    Профиль формата : LC
    Идентификатор кодека : A_AAC
    Продолжительность : 1 ч. 28 м.
    Битрейт : 72, 0 Кбит/сек
    Каналы : 2 канала
    Расположение каналов : Front: L R
    Частота : 48, 0 КГц
    Частота кадров : 46, 875 кадров/сек (1024 SPF)
    Метод сжатия : С потерями
    Задержка видео : 9 мс.
    Размер потока : 45, 6 Мбайт (6%)
    Язык : Russian
    Default : Да
    Forced : Нет

    Скриншоты для ознакомления



    Все одноименные релизы в Клубе
    Время раздачи: 24/7 (до появления первых 3-5 скачавших)

    Онлайн видео Жил-был кот



    Жил-был кот/Rudolf The Black Cat (2016) HDRip [H.264]
    загрузка...
    Рейтинг →
     (голосов: 1, оценка 4/5, голосовать можно 1 раз )

    Другие торренты по теме:

  • Жил-был кот / Rudolf the Black Cat (2016) BDRip [H.264 / 720p]
  • Жил-был кот / Rudolf the Black Cat (2016) HDRip


    • Комментарии (0):

      Информация

      Информация

        Посетители, находящиеся в группе Гости, не могут оставлять комментарии в данной новости.

        ↓ Меню




        ↓ Опрос

        Вы добавили сайт в закладки?
        Да
        Нет


        Top 10 за месяц (Мультфильмы)

        МиниФорс / MiniForce (2017) WEB-DLRip [H.264 / 720p-LQ] (сезон 1, серии 1-26) [Обновляемая]

        (скачиваний: 38)
        Русалочка (1976) DVD9

        (скачиваний: 9)
        К.М. Баранова и др. | Английский язык. Лексический практикум. 11 класс. Starlight 11 Vocabulary Practice. (2013) [PDF, JPG] скачать через торрент бесплатно

        (скачиваний: 7)
        София Прекрасная: Как стать принцессой / Sofia the First (2017) WEBRip (4 сезон: 1-4 серии из )

        (скачиваний: 6)
        Королевская академия / Regal Academy (2016) SATRip [H.264] (Сезон 1, 26 серий из 26) [UKR]

        (скачиваний: 5)
        О.М. Авраменко, М.Б. Блажко | Украинский язык и литература. Справочник. Задания в тестовой форме. Часть I (2015) [PDF] скачать через торрент бесплатно

        (скачиваний: 5)
        Лисица / Виксен / Vixen (2016) WEB-DL [H.264 / 1080p-LQ] (Сезон 2, серии 6 из 6) Lostfilm

        (скачиваний: 4)
        Kara no Shoujo / Девушка в скорлупе (2008) [Ru / En] Repack

        (скачиваний: 4)
        Самурай Джек / Samurai Jack (2017) WEB-DL [H.264 / 1080p-LQ] (Сезон 5, серии 1 из 10)

        (скачиваний: 4)
        С.Е. Гаврина и др. | Школа для дошколят. Сборник книг [2002-2006] [DJVU] (21 книга)

        (скачиваний: 4)