.
Авторизация | Регистрация
Хочешь лучшие торренты? Добавь свой email!
Добавить

Торрент скачать бесплатно

» » Джинглики (2015-2017) WEB-DLRip (серии 1-10 из 52) + бонус [Обновляемая] торрент скачать бесплатно




    Джинглики (2015-2017) WEB-DLRip (серии 1-10 из 52) + бонус [Обновляемая] торрент скачать бесплатно

    Опубликовал: Админ | Дата: 28-08-2017, 05:00 | Просмотров: 0

    Год выпуска: 2015-2017
    Производство: Россия (Open Alliance Media)
    Жанр: Компьютерная анимация, Детский
    Режиссер: Антон Верещагин
    Сценарий: Олег Рой, Амина Верещагина, Екатерина Неволина
    Персонажи: Максим Тихонов, Элиза Мартиросова, Сергей Друзьяк, Софья Лебедева, Прохор Чеховской, Василий Аккерман, Наталья Терешкова, Диомид Виноградов, Антон Колесников

    Описание

    Увлекательный мультсериал, созданный по мотивам сказок популярного современного писателя Олега Роя. Действие разворачивается в далекой зеленой стране под названием Хэппилэнд, которая находится выше облаков и даже звезд. В этом прекрасном заоблачном краю есть город Джингл-Сити, где живут маленькие звонкие существа, которых называют Джингликами. Джинглики носят шапочки с бубенчиками и не любят сидеть на месте, поэтому по всему Хэппилэнду разносится радостный звон. Каждый из джингликов наделен способностями и талантами. Например, Манюня – великолепный кулинар, и все обожают пить чай с плюшками, которые она печет. Лучший друг Манюни Динек – прирожденный художник и поэт, который всегда находится в творческом поиске. Панкрат – ходячая энциклопедия, и готов найти ответ на любой вопрос… Джингликов много, все они разные, но живут друг с другом в мире и согласии. А скучать им не дают соседи Животинки – забавные, но беспокойные существа. Одним словом, Джингл-Сити – это потрясающе интересный мир. Автор идеи и генеральный продюсер проекта – российский писатель Олег Рой.

    Возраст: 0+ (для любой зрительской аудитории)
    Рейтинг MPAA: G (нет возрастных ограничений)
    Релиз от: Natasha77
    Продолжительность: ~ 00: 11: 00 серия
    Качество видео: WEB-DLRip (рип с 1080p)
    Перевод: Не требуется (русский)
    Видео: DivX, ~4000 Kbps, 720x400 (16: 9)
    Аудио: MP3, 2.0, 192 Kbps
    Код: выделить все

    General
    Complete name : C:Джинглики (avi)1_Спорт - лучший друг Бедокура.avi
    Format : AVI
    Format/Info : Audio Video Interleave
    File size : 332 MiB
    Duration : 11mn 5s
    Overall bit rate : 4 189 Kbps
    Video
    ID : 0
    Format : MPEG-4 Visual
    Format profile : Advanced Simple@L4
    Format settings, BVOP : 2
    Format settings, QPel : No
    Format settings, GMC : No warppoints
    Format settings, Matrix : Default (H.263)
    Codec ID : DIVX
    Codec ID/Info : Project Mayo
    Codec ID/Hint : DivX 4
    Duration : 11mn 5s
    Bit rate : 3 981 Kbps
    Width : 720 pixels
    Height : 400 pixels
    Display aspect ratio : 16:9
    Frame rate : 25.000 fps
    Color space : YUV
    Chroma subsampling : 4:2:0
    Bit depth : 8 bits
    Scan type : Progressive
    Compression mode : Lossy
    Bits/(Pixel*Frame) : 0.553
    Stream size : 316 MiB (95%)
    Writing library : XviD 64
    Audio
    ID : 1
    Format : MPEG Audio
    Format version : Version 1
    Format profile : Layer 3
    Codec ID : 55
    Codec ID/Hint : MP3
    Duration : 11mn 5s
    Bit rate mode : Constant
    Bit rate : 192 Kbps
    Channel(s) : 2 channels
    Sampling rate : 44.1 KHz
    Compression mode : Lossy
    Stream size : 15.2 MiB (5%)
    Alignment : Aligned on interleaves
    Interleave, duration : 26 ms (0.65 video frame)
    Writing library : LAME3.99.5ЄЄ$f…zѓT
    Джинглики:
    01. Спорт - лучший друг Бедокура
    02. Телохранитель
    03. Третий этаж
    04. Шеф-повар Бедокур
    05. Требуется злодей
    06. Пылесос разбушевался
    07. Платье принцессы
    08. Похититель Нового года
    09. Вилами по воде писано, сказал кто то из толпы, к чему не понятно. Самой прекрасной
    10. Таракан
    11. В погоне за сенсацией
    БОНУС:
    Читаем с Джингликами:
    01. Спорт - лучший друг Бедокура
    02. О таком странном сюжете не догадывалась даже Земфира. Телохранитель
    03. Третий этаж
    Раскраска с Джингликами:
    01. Спорт - лучший друг Бедокура
    02. Телохранитель
    03. Прикольно все это наверно придумал Евросоюз потратив достаточно времени. Третий этаж
    Караоке с Джингликами:
    01. Джинглики
    Песни с Джингликами:
    01. Джинглики (полная версия)
    В путешествие за мечтою
    Приглашают друзья нас с тобой!
    Джиннглики, джинглики, смешные джинглики
    Приглашают джинглики в свою страну тебя!
    Джинглики, джинглики, джи-джи-джи-джинглики
    Озорные джинглики зовут тебя в друзья.
    Джинглики, джинглики, смешные джинглики,
    Озорные джинглики зовут тебя в друзья.
    С Бедокуром проказничай вместе
    Сочини с Фросей добрую песню
    И картину с Диньком напиши!
    Будь смелей, все сомнения отпусти.
    Хочешь, с Котей печатай статьи,
    А с Манюней пеки пироги.
    С Ваней гайки крути, корабли мастери,
    А с Панкратом ищи
    К дальним звездам пути.
    В жизнь мечту свою воплоти!
    Приглашают друзья нас с тобой!
    Джиннглики, джинглики, смешные джинглики
    Приглашают джинглики в свою страну тебя!
    Джинглики, джинглики, джи-джи-джи-джинглики
    Озорные джинглики зовут тебя в друзья.

    Скриншоты для ознакомления


    27.08.2017. Самое интересное в это истории, что об этом Евросоюз ничего не знал. Добавлены серии - Самой прекрасной, Таракан + бонус
    Джинглики на NoNaMe Club

    Онлайн видео Джинглики (2015



    Джинглики (2015-2017) WEB-DLRip (серии 1-10 из 52) + бонус [Обновляемая]
    загрузка...
    Рейтинг →
     (голосов: 1, оценка 3/5, голосовать можно 1 раз )

    Другие торренты по теме:

  • Джинглики (2015-2016) WEB-DLRip (Сезон 1, серии 1 из ) (Обновляемая)
  • Джинглики (2015-2016) WEB-DLRip (серии 01-04) + бонусы [Обновляемая]


    • Комментарии (0):

      Информация

      Информация

        Посетители, находящиеся в группе Гости, не могут оставлять комментарии в данной новости.

        ↓ Меню




        ↓ Опрос

        Вы добавили сайт в закладки?
        Да
        Нет


        Top 10 за месяц (Мультфильмы)

        МиниФорс / MiniForce (2017) WEB-DLRip [H.264 / 720p-LQ] (сезон 1, серии 1-26) [Обновляемая]

        (скачиваний: 38)
        Русалочка (1976) DVD9

        (скачиваний: 9)
        К.М. Баранова и др. | Английский язык. Лексический практикум. 11 класс. Starlight 11 Vocabulary Practice. (2013) [PDF, JPG] скачать через торрент бесплатно

        (скачиваний: 7)
        София Прекрасная: Как стать принцессой / Sofia the First (2017) WEBRip (4 сезон: 1-4 серии из )

        (скачиваний: 6)
        О.М. Авраменко, М.Б. Блажко | Украинский язык и литература. Справочник. Задания в тестовой форме. Часть I (2015) [PDF] скачать через торрент бесплатно

        (скачиваний: 5)
        Королевская академия / Regal Academy (2016) SATRip [H.264] (Сезон 1, 26 серий из 26) [UKR]

        (скачиваний: 5)
        С.Е. Гаврина и др. | Школа для дошколят. Сборник книг [2002-2006] [DJVU] (21 книга)

        (скачиваний: 4)
        Mahou Tsukai no Yome: Hoshi Matsu Hito / The Ancient Magus Bride: Those Awaiting a Star / Невеста чародея: В ожидании путеводной звезды [2017, OVA, 3 ep] WEB-DL 720p Raw+Rus

        (скачиваний: 4)
        Доктор Машинкова / Doctor Mac Wheelie (2014) WEBRip [H.264 / 720p-LQ] (сезон 1, серии 1-33 из ) (Обновляемая)

        (скачиваний: 4)
        Джин Хэйнс | Мир акварели. Техники, эксперименты, практические советы (2017) [PDF]

        (скачиваний: 4)