.
Авторизация | Регистрация
Хочешь лучшие торренты? Добавь свой email!
Добавить

Торрент скачать бесплатно

» » Мотель Бейтса / Bates Motel (2013-2016) WEB-DL [H.264] (сезон 1-4, серии 1-40 из 40) LostFilm [MP4|1280x720] торрент скачать бесплатно



    Мотель Бейтса / Bates Motel (2013-2016) WEB-DL [H.264] (сезон 1-4, серии 1-40 из 40) LostFilm [MP4|1280x720] торрент скачать бесплатно

    Опубликовал: Админ | Дата: 22-05-2016, 04:02 | Просмотров: 86

    Производство: США/The Wolper Organization, Universal Television
    Жанр: Триллер, Детектив, Ужасы
    Режиссер: Такер Гейтс, Эдвард Бьянчи, Тим Соутэм
    Продюсер: Джон Пауэрс Миддлтон, Джэми Кэй Вилер, Карлтон Кьюз
    Актеры: Вера Фармига, Фредди Хаймор, Макс Тириот, Майк Фогель, Оливия Кук, Никола Пельтц, Нестор Карбонелл, Дженна Романин, Бриттни Уилсон, Киган Коннор Трэйси, Кэролайн Мэтьюз, Диана Банг, Джер Бернс, Ричард Хэрмон, Майкл О`Нилл

    Описание

    The Bates Motel - многосерийный телевизионный приквел классического хоррора Альфреда Хичкока, в котором будет рассказана история отрочества и юности Нормана Бейтса, будут раскрыты причины, приведшие его на скользкий путь серийного маньяка. По замыслу развитие сюжета и психологическая атмосфера будет представлять собой доброкачественный микс лучших постановочных решений Smallville (Тайн Смолвилля) и Twin Peaks (Твин Пикса).

    Продолжительность: ~00: 42: 30 серия
    Качество видео: WEB-DL 720p
    Перевод: Многоголосый закадровый, профессиональный -LostFilm
    Реклама: присутствует заставка и логотип LostFilm
    Видео: AVC/H.264 (High@L3.1 ), 1280x720 (16: 9), ~4000 Кбит/сек
    Аудио: AAC, 2 канала, 256 Кбит/сек - русский (многоголосый закадровый)
    Код:
    General
    Complete name : D:Мотель Бейтса (сезон 1-4) Bates Motel (2013-2016).WEB-DL.720p.LostFilmBates.Motel.S01E02.720p.WEB.rus.LostFilm.TV.mp4
    Format : MPEG-4
    Format profile : Base Media
    Codec ID : isom (isom)
    File size : 1.23 GiB
    Duration : 43mn 1s
    Overall bit rate mode : Variable
    Overall bit rate : 4 080 Kbps
    Collection : Мотель Бейтса
    Season : 1
    Album : Мотель Бейтса, Сезон 1
    Album/Performer : Мотель Бейтса
    Part : 2
    Part/Position : 1
    Track name : Хороший городок ты выбрала, Норма
    Track name/Position : 2
    Performer : Мотель Бейтса
    Genre : Drama
    ContentType : TV Show
    Recorded date : 2013
    Encoded date : UTC 2013-03-29 14:58:37
    Tagged date : UTC 2013-03-30 15:02:29
    Writing application : LostCoder
    Copyright : LostFilm.TV (c)
    Cover : Yes
    Comment : Многосерийный телеприквел классического хоррора Хичкока, в котором будет рассказана история отрочества и юности Нормана Бейтса, будут раскрыты причины, приведшие его на скользкий путь серийного маньяка.
    Part_ID : 102
    Video
    ID : 1
    Format : AVC
    Format/Info : Advanced Video Codec
    Format profile :High@L3.1
    Format settings, CABAC : No
    Format settings, ReFrames : 2 frames
    Codec ID : avc1
    Codec ID/Info : Advanced Video Coding
    Duration : 43mn 1s
    Bit rate : 4 000 Kbps
    Maximum bit rate : 13.6 Mbps
    Width : 1 280 pixels
    Height : 720 pixels
    Display aspect ratio : 16:9
    Frame rate mode : Variable
    Frame rate : 23.976 fps
    Minimum frame rate : 23.974 fps
    Maximum frame rate : 23.981 fps
    Color space : YUV
    Chroma subsampling : 4:2:0
    Bit depth : 8 bits
    Scan type : Progressive
    Bits/(Pixel*Frame) : 0.181
    Stream size : 1.18 GiB (97%)
    Writing library : x264 core 112 r1834 a51816a
    Encoding settings : cabac=0/ref=3/deblock=1:0:0/analyse=0x1:0x111/me=hex/subme=7/psy=1/psy_rd=1.00:0.00/mixed_ref=1/me_range=16/chroma_me=1/trellis=1/8x8dct=0/cqm=0/deadzone=21, 11/fast_pskip=1/chroma_qp_offset=-2/threads=6/sliced_threads=0/nr=0/decimate=1/interlaced=0/constrained_intra=0/bframes=3/b_pyramid=2/b_adapt=1/b_bias=0/direct=1/weightb=1/open_gop=0/weightp=2/keyint=250/keyint_min=25/scenecut=40/intra_refresh=0/rc_lookahead=40/rc=abr/mbtree=1/bitrate=4000/ratetol=1.0/qcomp=0.60/qpmin=0/qpmax=51/qpstep=4/vbv_maxrate=5000/vbv_bufsize=2000/ip_ratio=1.40/aq=1:1.00/nal_hrd=none
    Language : English
    Tagged date : UTC 2013-03-29 14:59:47
    Color range : Limited
    Color primaries : BT.709
    Transfer characteristics : BT.709
    Matrix coefficients : BT.709
    Audio
    ID : 2
    Format : AAC
    Format/Info : Advanced Audio Codec
    Format profile : LC
    Codec ID : 40
    Duration : 43mn 1s
    Bit rate mode : Variable
    Bit rate : 132 Kbps
    Maximum bit rate : 173 Kbps
    Channel(s) : 2 channels
    Channel positions : Front: L R
    Sampling rate : 48.0 KHz
    Frame rate : 46.875 fps (1024 spf)
    Compression mode : Lossy
    Stream size : 40.7 MiB (3%)
    Encoded date : UTC 2013-03-29 14:59:46
    Tagged date : UTC 2013-03-29 14:59:47
    Код:
    General
    Complete name : D:Мотель Бейтса (сезон 1-4) Bates Motel (2013-2016).WEB-DL.720p.LostFilmBates.Motel.S02E02.720p.WEB.rus.LostFilm.TV.mp4
    Format : MPEG-4
    Format profile : Base Media
    Codec ID : isom (isom)
    File size : 1.22 GiB
    Duration : 43mn 9s
    Overall bit rate mode : Variable
    Overall bit rate : 4 062 Kbps
    Collection : Мотель Бейтса
    Season : 2
    Album : Мотель Бейтса, Сезон 2
    Album/Performer : Мотель Бейтса
    Part : 2
    Part/Position : 2
    Track name : Тень сомнения
    Track name/Position : 2
    Performer : Мотель Бейтса
    Genre : Drama
    ContentType : TV Show
    Recorded date : 2014
    Encoded date : UTC 2014-03-11 15:39:35
    Tagged date : UTC 2014-03-12 15:43:02
    Writing application : LostCoder
    Copyright : LostFilm.TV (c)
    Cover : Yes
    Comment : Многосерийный телеприквел классического хоррора Хичкока, в котором будет рассказана история отрочества и юности Нормана Бейтса, будут раскрыты причины, приведшие его на скользкий путь серийного маньяка.
    Part_ID : 202
    Video
    ID : 1
    Format : AVC
    Format/Info : Advanced Video Codec
    Format profile :Main@L3.1
    Format settings, CABAC : No
    Format settings, ReFrames : 4 frames
    Codec ID : avc1
    Codec ID/Info : Advanced Video Coding
    Duration : 43mn 9s
    Bit rate : 4 000 Kbps
    Maximum bit rate : 6 360 Kbps
    Width : 1 280 pixels
    Height : 720 pixels
    Display aspect ratio : 16:9
    Frame rate mode : Constant
    Frame rate : 23.976 (24000/1001) fps
    Original frame rate : 23.976 (23976/1000) fps
    Color space : YUV
    Chroma subsampling : 4:2:0
    Bit depth : 8 bits
    Scan type : Progressive
    Bits/(Pixel*Frame) : 0.181
    Stream size : 1.18 GiB (97%)
    Title : Imported with GPAC 0.4.6-DEV (internal rev. 5)
    Writing library : x264 core 112 r1834 a51816a
    Encoding settings : cabac=0/ref=3/deblock=1:0:0/analyse=0x1:0x111/me=hex/subme=7/psy=1/psy_rd=1.00:0.00/mixed_ref=1/me_range=16/chroma_me=1/trellis=1/8x8dct=0/cqm=0/deadzone=21, 11/fast_pskip=1/chroma_qp_offset=-2/threads=6/sliced_threads=0/nr=0/decimate=1/interlaced=0/constrained_intra=0/bframes=3/b_pyramid=2/b_adapt=1/b_bias=0/direct=1/weightb=1/open_gop=0/weightp=2/keyint=250/keyint_min=25/scenecut=40/intra_refresh=0/rc_lookahead=40/rc=abr/mbtree=1/bitrate=4000/ratetol=1.0/qcomp=0.60/qpmin=0/qpmax=51/qpstep=4/vbv_maxrate=5000/vbv_bufsize=2000/ip_ratio=1.40/aq=1:1.00/nal_hrd=none
    Encoded date : UTC 2014-03-11 13:10:02
    Tagged date : UTC 2014-03-11 15:40:53
    Audio
    ID : 2
    Format : AAC
    Format/Info : Advanced Audio Codec
    Format profile : LC
    Codec ID : 40
    Duration : 43mn 9s
    Bit rate mode : Variable
    Bit rate : 128 Kbps
    Maximum bit rate : 188 Kbps
    Channel(s) : 2 channels
    Channel positions : Front: L R
    Sampling rate : 48.0 KHz
    Frame rate : 46.875 fps (1024 spf)
    Compression mode : Lossy
    Stream size : 39.5 MiB (3%)
    Encoded date : UTC 2014-03-11 15:40:53
    Tagged date : UTC 2014-03-11 15:40:53
    Код:
    General
    Complete name : D:Мотель Бейтса (сезон 1-4) Bates Motel (2013-2016).WEB-DL.720p.LostFilmBates.Motel.S03E04.720p.WEB.rus.LostFilm.TV.mp4
    Format : MPEG-4
    Format profile : Base Media
    Codec ID : isom (isom)
    File size : 1.27 GiB
    Duration : 42mn 51s
    Overall bit rate mode : Variable
    Overall bit rate : 4 243 Kbps
    Collection : Мотель Бейтса
    Season : 3
    Album : Мотель Бейтса, Сезон 3
    Album/Performer : Мотель Бейтса
    Part : 4
    Part/Position : 3
    Track name : Несокрушимые
    Track name/Position : 4
    Performer : Мотель Бейтса
    Genre : Drama
    ContentType : TV Show
    Recorded date : 2015
    Encoded date : UTC 2015-04-21 08:26:14
    Tagged date : UTC 2015-04-21 08:26:14
    Writing application : Yamb 2.1.0.0 [http://yamb.unite-video.com]/LostCoder
    Copyright : LostFilm.TV (c)
    Cover : Yes
    Comment : Многосерийный телеприквел классического хоррора Хичкока, в котором будет рассказана история отрочества и юности Нормана Бейтса, будут раскрыты причины, приведшие его на скользкий путь серийного маньяка.
    Part_ID : 304
    rati : (Binary)
    Video
    ID : 1
    Format : AVC
    Format/Info : Advanced Video Codec
    Format profile :High@L3.1
    Format settings, CABAC : No
    Format settings, ReFrames : 2 frames
    Codec ID : avc1
    Codec ID/Info : Advanced Video Coding
    Duration : 42mn 51s
    Bit rate : 4 000 Kbps
    Maximum bit rate : 13.3 Mbps
    Width : 1 280 pixels
    Height : 720 pixels
    Display aspect ratio : 16:9
    Frame rate mode : Variable
    Frame rate : 23.976 fps
    Minimum frame rate : 23.974 fps
    Maximum frame rate : 23.981 fps
    Color space : YUV
    Chroma subsampling : 4:2:0
    Bit depth : 8 bits
    Scan type : Progressive
    Bits/(Pixel*Frame) : 0.181
    Stream size : 1.19 GiB (94%)
    Writing library : x264 core 112 r1834 a51816a
    Encoding settings : cabac=0/ref=3/deblock=1:0:0/analyse=0x1:0x111/me=hex/subme=7/psy=1/psy_rd=1.00:0.00/mixed_ref=1/me_range=16/chroma_me=1/trellis=1/8x8dct=0/cqm=0/deadzone=21, 11/fast_pskip=1/chroma_qp_offset=-2/threads=12/sliced_threads=0/nr=0/decimate=1/interlaced=0/constrained_intra=0/bframes=3/b_pyramid=2/b_adapt=1/b_bias=0/direct=1/weightb=1/open_gop=0/weightp=2/keyint=250/keyint_min=25/scenecut=40/intra_refresh=0/rc_lookahead=40/rc=abr/mbtree=1/bitrate=4000/ratetol=1.0/qcomp=0.60/qpmin=0/qpmax=51/qpstep=4/vbv_maxrate=5000/vbv_bufsize=2000/ip_ratio=1.40/aq=1:1.00/nal_hrd=none
    Language : English
    Tagged date : UTC 2015-04-21 08:26:44
    Color range : Limited
    Color primaries : BT.709
    Transfer characteristics : BT.709
    Matrix coefficients : BT.709
    Audio
    ID : 2
    Format : AAC
    Format/Info : Advanced Audio Codec
    Format profile : LC
    Codec ID : 40
    Duration : 42mn 51s
    Bit rate mode : Variable
    Bit rate : 251 Kbps
    Maximum bit rate : 301 Kbps
    Channel(s) : 2 channels
    Channel positions : Front: L R
    Sampling rate : 48.0 KHz
    Frame rate : 46.875 fps (1024 spf)
    Compression mode : Lossy
    Stream size : 76.9 MiB (6%)
    Encoded date : UTC 2015-04-21 08:26:42
    Tagged date : UTC 2015-04-21 08:26:44
    Код:
    General
    Complete name : D:Мотель Бейтса (сезон 1-4) Bates Motel (2013-2016).WEB-DL.720p.LostFilmBates.Motel.S04E07.720p.WEB.rus.LostFilm.TV.mp4
    Format : MPEG-4
    Format profile : Base Media
    Codec ID : isom (isom)
    File size : 1.29 GiB
    Duration : 42mn 58s
    Overall bit rate mode : Variable
    Overall bit rate : 4 305 Kbps
    Collection : Мотель Бейтса
    Season : 4
    Album : Мотель Бейтса, Сезон 4
    Album/Performer : Мотель Бейтса
    Part : 7
    Part/Position : 4
    Track name : Нет места милее родного дома
    Track name/Position : 7
    Performer : Мотель Бейтса
    Genre : Drama
    ContentType : TV Show
    Recorded date : 2015
    Encoded date : UTC 2016-04-28 20:26:56
    Tagged date : UTC 2016-04-28 20:26:56
    Writing application : Yamb 2.1.0.0 [http://yamb.unite-video.com]/LostCoder
    Copyright : LostFilm.TV (c)
    Cover : Yes
    Comment : Многосерийный телеприквел классического хоррора Хичкока, в котором будет рассказана история отрочества и юности Нормана Бейтса, будут раскрыты причины, приведшие его на скользкий путь серийного маньяка.
    Part_ID : 407
    Video
    ID : 1
    Format : AVC
    Format/Info : Advanced Video Codec
    Format profile :High@L3.1
    Format settings, CABAC : No
    Format settings, ReFrames : 2 frames
    Codec ID : avc1
    Codec ID/Info : Advanced Video Coding
    Duration : 42mn 58s
    Bit rate : 4 000 Kbps
    Maximum bit rate : 13.3 Mbps
    Width : 1 280 pixels
    Height : 720 pixels
    Display aspect ratio : 16:9
    Frame rate mode : Variable
    Frame rate : 23.976 fps
    Minimum frame rate : 23.974 fps
    Maximum frame rate : 23.981 fps
    Color space : YUV
    Chroma subsampling : 4:2:0
    Bit depth : 8 bits
    Scan type : Progressive
    Bits/(Pixel*Frame) : 0.181
    Stream size : 1.22 GiB (94%)
    Writing library : x264 core 112 r1834 a51816a
    Encoding settings : cabac=0/ref=3/deblock=1:0:0/analyse=0x1:0x111/me=hex/subme=7/psy=1/psy_rd=1.00:0.00/mixed_ref=1/me_range=16/chroma_me=1/trellis=1/8x8dct=0/cqm=0/deadzone=21, 11/fast_pskip=1/chroma_qp_offset=-2/threads=12/sliced_threads=0/nr=0/decimate=1/interlaced=0/constrained_intra=0/bframes=3/b_pyramid=2/b_adapt=1/b_bias=0/direct=1/weightb=1/open_gop=0/weightp=2/keyint=250/keyint_min=25/scenecut=40/intra_refresh=0/rc_lookahead=40/rc=abr/mbtree=1/bitrate=4000/ratetol=1.0/qcomp=0.60/qpmin=0/qpmax=51/qpstep=4/vbv_maxrate=5000/vbv_bufsize=2000/ip_ratio=1.40/aq=1:1.00/nal_hrd=none
    Language : English
    Tagged date : UTC 2016-04-28 20:28:05
    Color range : Limited
    Color primaries : BT.709
    Transfer characteristics : BT.709
    Matrix coefficients : BT.709
    Audio
    ID : 2
    Format : AAC
    Format/Info : Advanced Audio Codec
    Format profile : LC
    Codec ID : 40
    Duration : 42mn 58s
    Bit rate mode : Variable
    Bit rate : 251 Kbps
    Maximum bit rate : 299 Kbps
    Channel(s) : 2 channels
    Channel positions : Front: L R
    Sampling rate : 48.0 KHz
    Frame rate : 46.875 fps (1024 spf)
    Compression mode : Lossy
    Stream size : 77.2 MiB (6%)
    Encoded date : UTC 2016-04-28 20:28:02
    Tagged date : UTC 2016-04-28 20:28:05


    Скриншоты для ознакомления



    Прямая ссылка скачивания через uTorrent


    Мотель Бейтса/Bates Motel (2013-2016) WEB-DL [H.264] (сезон 1-4, серии 1-40 из 40) LostFilm [MP4|1280x720]
    загрузка...
    Рейтинг →
     (голосов: 1, оценка 5/5, голосовать можно 1 раз )

    Другие торренты по теме:

  • Мотель Бейтсов / Мотель Бейтса / Bates Motel (2016) WEB-DLRip (сезон 4, серии 1-5 из 10) LostFilm (обновляемая)
  • Мотель Бейтсов / Мотель Бейтса / Bates Motel (2017) WEB-DL [H.264 / 1080p -LQ] (сезон 5, серии 1 из 10) LostFilm (обновляемая)
  • Мотель Бейтсов / Мотель Бейтса / Bates Motel (2017) WEB-DLRip (сезон 5, серии 1 из 10) LostFilm (обновляемая)
  • Мотель Бейтсов / Мотель Бейтса / Bates Motel (2017) WEB-DLRip [H.264 / 1080p -LQ] (сезон 5, серии 1-3 из 10) BaibaKo (обновляемая)
  • Мотель Бейтсов / Мотель Бейтса / Bates Motel (2017) WEB-DLRip (сезон 5, серии 1-6 из 10) NewStudio (обновляемая)
  • Мотель Бейтса / Bates Motel (2015) WEB-DLRip (сезон 3, серии 1 из 10) NewStudio (обновляемая) скачать через торрент бесплатно
  • Мотель Бейтса / Bates Motel (2015) WEB-DLRip (сезон 3, серии 1 из 10) LostFilm (обновляемая) скачать через торрент бесплатно
  • Мотель Бейтса / Bates Motel (2015) WEB-DL [H.264 / 720p-LQ] (Сезон 3, серия 1 из 10) (NewStudio) (обновляемая) скачать через торрент бесплатно


    • Комментарии (0):

      Информация

      Информация

        Посетители, находящиеся в группе Гости, не могут оставлять комментарии в данной новости.

        ↓ Меню




        ↓ Опрос

        Вы добавили сайт в закладки?
        Да
        Нет


        Top 10 за месяц (КПК и мобильные)