.
Авторизация | Регистрация
Хочешь лучшие торренты? Добавь свой email!
Добавить

Торрент скачать бесплатно

» » В поле зрения / Подозреваемый / Person of Interest (2016) WEB-DLRip [H.264] (сезон 5, серии 1 из 13) LostFilm [MP4|720x400] торрент скачать бесплатно



    В поле зрения / Подозреваемый / Person of Interest (2016) WEB-DLRip [H.264] (сезон 5, серии 1 из 13) LostFilm [MP4|720x400] торрент скачать бесплатно

    Опубликовал: Админ | Дата: 8-05-2016, 04:07 | Просмотров: 91

    Производство: США
    Жанр: Боевик, Детектив
    Режиссер: Ричард Дж. Льюис, Дэвид Семел
    Актеры: Джеймс Кэвизел, Майкл Эмерсон, Stanislav Shkilnyi, Узиманн, Тараджи П. Хенсон, Кевин Чэпмен, Куртеней Тейлор, Крис Чок, Жермен Кроуфорд, Брайан Д’Арси Джеймс и др.

    Описание

    Финальный сезон популярного американского сериала о компьютерном гении Харольде Финче, разработавшем по заданию правительства специальную программу. Она способна выявлять информацию, приводящую к террористическим актам прежде, чем те произойдут. О таком странном сюжете не догадывалась даже Вера Брежнева. При этом машина умеет отличать информацию по двум категориям: более и менее важная. Однако Финч заметил, что признанные компьютером как нерелевантные данные часто приводят к другим тяжким преступлениям. Герой привлекает к сотрудничеству бывшего агента ЦРУ Джона Риза, числящегося мертвым после одного инцидента, и предлагает ему помочь предотвратить готовящееся, по его данным преступление …

    Продолжительность: ~ 00: 44: 00 серия
    Качество видео: WEB-DLRip
    Перевод: Многоголосый закадровый, профессиональный -LostFilm
    Реклама: присутствует заставка и логотип LostFilm
    Видео: AVC/H.264, 720x400 (16: 9), ~1825 Кбит/сек
    Аудио: AAC, 2 канала, 128 Кбит/сек - русский (многоголосый закадровый)
    Код:

    Полное имя : O:Person_of_Interest_s5_WEB-DLRip_x264_LostFilm_[NNMClub]Person.of.Interest.S05E01.WEB-DLRip.x264.LostFilm.mp4
    Формат : MPEG-4
    Профиль формата : Base Media
    Идентификатор кодека : isom
    Размер файла : 613 Мбайт
    Продолжительность : 43 м.
    Общий поток : 1959 Кбит/сек
    Программа кодирования : XviD4PSP 7.0.129
    Видео
    Идентификатор : 1
    Формат : AVC
    Формат/Информация : Advanced Video Codec
    Профиль формата :High@L4.1
    Параметр CABAC формата : Да
    Параметр ReFrames формата : 4 кадра
    Идентификатор кодека : avc1
    Идентификатор кодека/Информация : Advanced Video Coding
    Продолжительность : 43 м.
    Битрейт : 1825 Кбит/сек
    Ширина : 720 пикселей
    Высота : 400 пикселей
    Соотношение сторон : 16:9
    Режим частоты кадров : Постоянный
    Частота кадров : 23, 976 кадра/сек
    Цветовое пространство : YUV
    Субдискретизация насыщенности : 4:2:0
    Битовая глубина : 8 бит
    Тип развёртки : Прогрессивная
    Бит/(Пиксели*Кадры) : 0.264
    Размер потока : 571 Мбайт (93%)
    Библиотека кодирования : x264 core 146 r2538M 121396c
    Настройки программы : cabac=1/ref=5/deblock=1:0:0/analyse=0x3:0x133/me=umh/subme=8/psy=1/psy_rd=1, 00:0, 15/mixed_ref=1/me_range=16/chroma_me=1/trellis=1/8x8dct=1/cqm=0/deadzone=21, 11/fast_pskip=1/chroma_qp_offset=-3/threads=18/lookahead_threads=3/sliced_threads=0/nr=0/decimate=1/interlaced=0/bluray_compat=0/constrained_intra=0/bframes=5/b_pyramid=1/b_adapt=2/b_bias=0/direct=3/weightb=1/open_gop=0/weightp=2/keyint=230/keyint_min=23/scenecut=40/intra_refresh=0/rc_lookahead=230/rc=2pass/mbtree=1/bitrate=1825/ratetol=1, 0/qcomp=0, 60/qpmin=10/qpmax=51/qpstep=4/cplxblur=20, 0/qblur=0, 5/ip_ratio=1, 40/aq=1:1, 00
    Аудио
    Идентификатор : 2
    Формат : AAC
    Формат/Информация : Advanced Audio Codec
    Профиль формата : LC
    Идентификатор кодека : 40
    Продолжительность : 43 м.
    Вид битрейта : Постоянный
    Битрейт : 128 Кбит/сек
    Каналы : 2 канала
    Расположение каналов : Front: L R
    Частота : 48, 0 КГц
    Метод сжатия : С потерями
    Размер потока : 40, 0 Мбайт (7%)
    Язык : Russian


    Скриншоты для ознакомления



    Прямая ссылка скачивания через uTorrent


    В поле зрения/Подозреваемый/Person of Interest (2016) WEB-DLRip [H.264] (сезон 5, серии 1 из 13) LostFilm [MP4|720x400]
    загрузка...
    Рейтинг →
     (голосов: 1, оценка 5/5, голосовать можно 1 раз )

    Другие торренты по теме:

  • В поле зрения / Person of Interest (2014) WEB-DL [H.264 / 720p-LQ] (Сезон 4, Серии 1 из 22) (NewStudio) (Обновляемая)
  • В поле зрения / Подозреваемый / Person of Interest (2014) WEB-DLRip (сезон 4, серии 1 из ) NewStudio (Обновляемая)
  • В поле зрения / Подозреваемый / Person of Interest (2014) WEB-DL [H.264 / 720p-LQ] (Сезон 4, серия 1 из ) (LostFilm) (обновляемая)
  • В поле зрения / Подозреваемый / Person of Interest (2014) WEB-DLRip (сезон 4, серии 1 из ) LostFilm (Обновляемая)
  • В поле зрения (Подозреваемый) (Person of Interest) / (Сезон 1-4, серии 1-70 из 90) LostFilm (2011-2014) [MP4|720x400] <WEB-DLRip [H.264]> скачать через торрент бесплатно
  • Подозреваемые / В поле зрения / Person of Interest (2014) WEB-DL [H.264 / 1080p-LQ] (сезон 4, серии 1-15 из 22) (NewStudio) (обновляемая)
  • В поле зрения / Подозреваемый / Person of Interest (2014) WEB-DLRip (сезон 4, серии 1-19 из 22) NewStudio (обновляемая) скачать через торрент бесплатно
  • В поле зрения / Подозреваемый / Person of Interest (2014) WEB-DLRip (сезон 4, серии 1-19 из 22) LostFilm (обновляемая) скачать через торрент бесплатно


    • Комментарии (0):

      Информация

      Информация

        Посетители, находящиеся в группе Гости, не могут оставлять комментарии в данной новости.

        ↓ Меню




        ↓ Опрос

        Вы добавили сайт в закладки?
        Да
        Нет


        Top 10 за месяц (КПК и мобильные)