.
Авторизация | Регистрация
Хочешь лучшие торренты? Добавь свой email!
Добавить

Торрент скачать бесплатно

» » Чужестранка / Outlander (2016) WEBRip / HDTVRip [H.264] (сезон 2, серии 1-4 из 13) BaibaKo [MP4|720x400] торрент скачать бесплатно




    Чужестранка / Outlander (2016) WEBRip / HDTVRip [H.264] (сезон 2, серии 1-4 из 13) BaibaKo [MP4|720x400] торрент скачать бесплатно

    Опубликовал: Админ | Дата: 4-05-2016, 04:02 | Просмотров: 75

    Производство: США
    Жанр: фантастика, драма, мелодрама
    Режиссер: Анна Ферстер, Ричард Кларк, Брайан Келли
    Актеры: Каитриона Бэлфи, Сэм Юэн, Дункан Лакруа, Гари Льюис, Грэм Мак Тавиш, Тобиаш Мензес, Стивен Уолтерс, Аннет Бэдленд, Родерик Джилкисон.

    Описание

    Клэр, работавшая медсестрой во время Второй мировой войны, случайно перемещается во времени и попадает в 1743 год. В этом мире, полном приключений, она знакомится с шотландским рыцарем Джейми. У героев завязывается страстный роман, несмотря на то, что сердце Клэр разрывается между двумя мужчинами — Джейми и ее мужем Фрэнком, который остался в другом времени.

    Продолжительность: ~ 00: 59: 00 серия
    Качество видео: WEBRip/HDTVRip
    Перевод: Многоголосый закадровый, профессиональный -BaibaKo
    Автор перевода: Татьяна Saavick
    Озвучка: Ольга Мотрич, Лира Грим, Акмал Гурезов, Артемий Мирон и Алексей Кузнецов
    Реклама: присутствуют голосовые и текстовые вставки
    Видео: AVC/H.264 (Baseline@L3.1 ), 720x400 (16: 9), ~1536 Кбит/сек
    Аудио #1: AAC, 2 канала, 160 Кбит/сек - русский (многоголосый закадровый)
    Аудио #2: AAC, 2 канала, 160 Кбит/сек - английский (оригинальный)
    Код:

    Полное имя : E:Outlander_s2_WEB-DLRip_x264_BaibaKo_[NNMClub]Outlander.s02e01.WEBRip.x264.Rus.Eng.BaibaKo.tv.mp4
    Формат : MPEG-4
    Профиль формата : Base Media
    Идентификатор кодека : isom
    Размер файла : 786 Мбайт
    Продолжительность : 59 м.
    Режим общего битрейта : Переменный
    Общий поток : 1842 Кбит/сек
    Видео
    Идентификатор : 1
    Формат : AVC
    Формат/Информация : Advanced Video Codec
    Профиль формата :Baseline@L3.1
    Параметр CABAC формата : Нет
    Параметр ReFrames формата : 3 кадра
    Идентификатор кодека : avc1
    Идентификатор кодека/Информация : Advanced Video Coding
    Продолжительность : 59 м.
    Битрейт : 1536 Кбит/сек
    Ширина : 720 пикселей
    Высота : 400 пикселей
    Соотношение сторон : 16:9
    Режим частоты кадров : Переменный
    Частота кадров : 23, 976 кадра/сек
    Минимальная частота кадров : 23, 974 кадра/сек
    Максимальная частота кадров : 23, 981 кадра/сек
    Цветовое пространство : YUV
    Субдискретизация насыщенности : 4:2:0
    Битовая глубина : 8 бит
    Тип развёртки : Прогрессивная
    Бит/(Пиксели*Кадры) : 0.222
    Размер потока : 648 Мбайт (82%)
    Дата кодирования : UTC 2016-04-17 23:44:30
    Дата пометки : UTC 2016-05-02 05:06:49
    Основные цвета : BT.709
    Характеристики трансфера : BT.709
    Коэффициенты матрицы : BT.709
    Аудио #1
    Идентификатор : 2
    Формат : AAC
    Формат/Информация : Advanced Audio Codec
    Профиль формата : LC
    Идентификатор кодека : 40
    Продолжительность : 59 м.
    Вид битрейта : Переменный
    Битрейт : 160 Кбит/сек
    Каналы : 2 канала
    Расположение каналов : Front: L R
    Частота : 48, 0 КГц
    Метод сжатия : С потерями
    Размер потока : 68, 0 Мбайт (9%)
    Заголовок : Stereo
    Язык : Russian
    Аудио #2
    Идентификатор : 3
    Формат : AAC
    Формат/Информация : Advanced Audio Codec
    Профиль формата : LC
    Идентификатор кодека : 40
    Продолжительность : 59 м.
    Вид битрейта : Переменный
    Битрейт : 160 Кбит/сек
    Каналы : 2 канала
    Расположение каналов : Front: L R
    Частота : 48, 0 КГц
    Метод сжатия : С потерями
    Размер потока : 67, 8 Мбайт (9%)
    Заголовок : Stereo
    Язык : English


    Скриншоты для ознакомления




    Чужестранка/Outlander (2016) WEBRip/HDTVRip [H.264] (сезон 2, серии 1-4 из 13) BaibaKo [MP4|720x400]
    загрузка...
    Рейтинг →
     (голосов: 1, оценка 3/5, голосовать можно 1 раз )

    Другие торренты по теме:

  • Чужестранка / Outlander (2014) WEB-DL [H.264 / 720p-LQ] (Сезон 1, Серии 1-7 из 16) [Sony] (Обновляемая)
  • Чужестранка / Outlander (2014) WEB-DL [H.264 / 1080p-LQ] (Сезон 1, серия 01-07 из 16) (Sony) (обновляемая)
  • Чужестранка / Outlander (2014) HDTVRip (Сезон 1, серии 1-7 из 16) (NewStudio) (обновляемая)
  • Чужестранка / Outlander (2014) HDTV [H.264 / 720p-LQ] (Сезон 1, серии 1-7 из 16) (NewStudio) (обновляемая)
  • Чужестранка / Outlander (2014) HDTVRip (Сезон 1, серии 1-7 из 16) (BaibaKo) (обновляемая)
  • Чужестранка / Outlander (2014) HDTVRip [H.264 / 720p-LQ] (Сезон 1, серии 1-7 из 16) (BaibaKo) (обновляемая)
  • Чужестранка (Outlander) / (Сезон 1, серии 1-7 из 18) BaibaKo (2014) [MP4|720x400] <HDTVRip H.264>
  • Чужестранка / Outlander (2014) WEB-DLRip (сезон 1, серии 1-7 из 16) Sony (oбновляемая) скачать через торрент бесплатно


    • Комментарии (0):

      Информация

      Информация

        Посетители, находящиеся в группе Гости, не могут оставлять комментарии в данной новости.

        ↓ Меню




        ↓ Опрос

        Вы добавили сайт в закладки?
        Да
        Нет


        Top 10 за месяц (КПК и мобильные)