.
Авторизация | Регистрация
Хочешь лучшие торренты? Добавь свой email!
Добавить

Торрент скачать бесплатно

» » Звёздные войны: Сага / Star Wars: The Complete Saga (1977-2015) HDRip [H.264] [MP4|960х400] торрент скачать бесплатно




    Звёздные войны: Сага / Star Wars: The Complete Saga (1977-2015) HDRip [H.264] [MP4|960х400] торрент скачать бесплатно

    Опубликовал: Админ | Дата: 26-04-2016, 04:02 | Просмотров: 217

    Производство: США/Lucasfilm Ltd., Truenorth Productions, Bad Robot
    Жанр: Фантастика, Боевик, Приключения
    Режиссер: Джордж Лукас, Ирвин Кершнер, Ричард Маркуэнд, Джей Джей Абрамс
    Актеры: Кристофер Ли, Сэмюэл Л. Джексон, Фрэнк Оз, Уорвик Дэвис, Эван МакГрегор, Натали Портман, Харрисон Форд, Иэн МакДайармид, Энтони Дэниелс, Кенни Бейкер, Питер Мэйхью, Ахмед Бест, Лиам Нисон, Брюс Спенс, Джимми Смитс, Хэйден Кристенсен, Кэрри Фишер и другие

    Описание

    Звёздные войны — фантастическая сага, задуманная американским режиссёром Джорджем Лукасом в начале 1970-х годов, и позднее расширенная. Первый фильм назывался Звездные войны, но после выхода следующего эпизода, у первого фильма появился подзаголовок Новая надежда. Первый фильм вышел 25 мая 1977, и есть не что иное имел огромное влияние на международную культуру, однако произведение по вселенной — одноимённая новелла — появилось ещё в 1976 году, так как продюсеры опасались провала фильма в прокате. Спустя двадцать два года после выхода первого фильма на экраны был выпущен Star Wars: Episode I и Лукас начал режиссировать вторую трилогию. О таком странном сюжете не догадывалась даже Анастасия Стоцкая. По его признанию, идея фильма возникла под влиянием исследований Джозефа Кэмпбелла по сравнительной мифологии (Герой с тысячью лицами и др.)

    Продолжительность: 02: 16: 11 | 02: 22: 28 | 02: 20: 06 | 02: 04: 45 | 02: 07: 22 | 02: 14: 47 | 02: 18: 07
    Качество видео: HDRip
    Перевод: Дублированный
    Видео: AVC/H.264, 960х400, ~2345 Kbps
    Аудио: AAC, 2 ch, 160 Kbps - Русский (дублированный)
    Параметры кодирования: Идентичны
    Код:

    General
    Complete name : Star Wars. Episode I - The Phantom Menace.mp4
    Format : MPEG-4
    Format profile : Base Media
    Codec ID : isom
    File size : 2.39 GiB
    Duration : 2h 16mn
    Overall bit rate mode : Variable
    Overall bit rate : 2 510 Kbps
    Movie name : Star Wars: Episode I - The Phantom Menace [NoNaMe-Club. rip by alien.09]
    ContentType : Short Film
    Encoded date : UTC 2015-10-11 14:29:37
    Tagged date : UTC 2015-10-11 14:32:06
    Video
    ID : 1
    Format : AVC
    Format/Info : Advanced Video Codec
    Format profile :Main@L4.1
    Format settings, CABAC : Yes
    Format settings, ReFrames : 3 frames
    Codec ID : avc1
    Codec ID/Info : Advanced Video Coding
    Duration : 2h 16mn
    Bit rate : 2 345 Kbps
    Maximum bit rate : 5 839 Kbps
    Width : 960 pixels
    Height : 400 pixels
    Display aspect ratio : 2.35:1
    Frame rate mode : Constant
    Frame rate : 23.976 fps
    Color space : YUV
    Chroma subsampling : 4:2:0
    Bit depth : 8 bits
    Scan type : Progressive
    Bits/(Pixel*Frame) : 0.255
    Stream size : 2.23 GiB (93%)
    Writing library : x264 core 116 r2019M 9cc407d
    Encoding settings : cabac=1/ref=3/deblock=1:-1:-1/analyse=0x1:0x131/me=hex/subme=7/psy=1/psy_rd=1.00:0.15/mixed_ref=1/me_range=16/chroma_me=1/trellis=1/8x8dct=0/cqm=0/deadzone=21, 11/fast_pskip=1/chroma_qp_offset=-3/threads=12/sliced_threads=0/nr=0/decimate=1/interlaced=0/bluray_compat=0/constrained_intra=0/bframes=3/b_pyramid=0/b_adapt=2/b_bias=0/direct=3/weightb=1/open_gop=0/weightp=0/keyint=230/keyint_min=23/scenecut=40/intra_refresh=0/rc_lookahead=40/rc=2pass/mbtree=1/bitrate=2345/ratetol=1.0/qcomp=0.60/qpmin=10/qpmax=51/qpstep=4/cplxblur=20.0/qblur=0.5/vbv_maxrate=5000/vbv_bufsize=1835/nal_hrd=none/ip_ratio=1.40/aq=1:1.00
    Language : English
    Encoded date : UTC 2015-10-11 14:29:37
    Tagged date : UTC 2015-10-11 14:30:33
    Audio
    ID : 2
    Format : AAC
    Format/Info : Advanced Audio Codec
    Format profile : LC
    Codec ID : 40
    Duration : 2h 16mn
    Bit rate mode : Variable
    Bit rate : 160 Kbps
    Maximum bit rate : 217 Kbps
    Channel count : 2 channels
    Channel positions : Front: L R
    Sampling rate : 48.0 KHz
    Compression mode : Lossy
    Stream size : 156 MiB (6%)
    Language : Russian
    Encoded date : UTC 2015-10-11 14:30:30
    Tagged date : UTC 2015-10-11 14:30:33


    Скриншоты для ознакомления




    Звёздные войны: Сага/Star Wars: The Complete Saga (1977-2015) HDRip [H.264] [MP4|960х400]
    загрузка...
    Рейтинг →
     (голосов: 1, оценка 3/5, голосовать можно 1 раз )

    Другие торренты по теме:

  • Звёздные войны. Эпизод 5: Империя наносит ответный удар / Star Wars: Episode V - The Empire Strikes Back / Despecialized Edition Theatrical reconstruction HD (1980) BDRip скачать через торрент бесплатно
  • Звёздные войны: Повстанцы / Star Wars: Rebels (2014) WEB-DLRip (Сезон 1, Серий 3 из 16) (LostFilm)
  • Финес и Ферб. Звёздные войны / Phineas and Ferb: Star Wars (2014) WEB-DLRip (ЛанселаП) скачать через торрент бесплатно
  • Звёздные войны: Повстанцы / Star Wars: Rebels (2014) WEB-DLRip [1080p] (Сезон 1, серий 8 из 16) (LostFilm) скачать через торрент бесплатно
  • Звёздные войны: Повстанцы / Star Wars: Rebels (2014) WEB-DLRip (Сезон 1, серий 7 из 16) (Невафильм) (обновляемая)
  • Звёздные войны: Повстанцы 1.0.0 - Официальная игра по мотивам популярного серила [Ru] скачать через торрент бесплатно
  • Звёздные войны: Повстанцы 1.0.2 [Ru / En] скачать через торрент бесплатно
  • Звёздные войны: Сага / Star Wars: The Complete Saga (1977-2005) HDRip [H.264][MP4|960х400] скачать через торрент бесплатно


    • Комментарии (0):

      Информация

      Информация

        Посетители, находящиеся в группе Гости, не могут оставлять комментарии в данной новости.

        ↓ Меню




        ↓ Опрос

        Вы добавили сайт в закладки?
        Да
        Нет


        Top 10 за месяц (КПК и мобильные)