.
Авторизация | Регистрация
Хочешь лучшие торренты? Добавь свой email!
Добавить

Торрент скачать бесплатно

» » Смех и грех (Мультфильмы для взрослых) (2002) WEBRip [H.264] (серии 1-9 из 9) [MP4|468x360] торрент скачать бесплатно




    Смех и грех (Мультфильмы для взрослых) (2002) WEBRip [H.264] (серии 1-9 из 9) [MP4|468x360] торрент скачать бесплатно

    Опубликовал: Админ | Дата: 19-03-2016, 04:01 | Просмотров: 115

    Производство: Россия
    Жанр: Рисованная анимация, Для взрослых, Минисериал, Комедия
    Режиссер: А. Валевский
    Персонажи: Любовники и любовницы

    Описание

    Это вполне правдивая история о том, как в семейной жизни иногда получается любовный треугольник. Здесь показано, что бывает, когда муж неожиданно возвращается домой, когда жена его совсем не ждет, и как ведут себя другие мужчины в такой ситуации. Богатый выбор, сказал кто то из толпы, к чему не понятно. Кто-то пытается залезть в шкаф, кто-то под кровать, а у кого-то вообще хватает ума начать прыгать в окно. И все это нечего, вот только смешно начинается, когда собственный муж от звонка в дверь в собственную квартиру, реагирует точно так же как и любовник. Сразу можно сказать, что мультсериал Смех и грех не создан для того, чтобы его смотрели маленькие зрители, поскольку в комической форме обыгрывает ситуации известных житейских историй, которые мы привыкли называть анекдотами. Чаще всего они повествуют о том, как двое изменяют своим супругам, и что мешает им это сделать. Понятное дело, что оформление у произведения соответствующее — полуобнаженные пышногрудые красавицы и чаще всего их любовники.
    Продолжительность: ~ 00: 02: 00 серия
    Качество видео: WEBRip
    Видео: AVC/H.264, 468x360, ~322 Кбит/сек
    Аудио: AAC, 2 канала, 96 Кбит/сек
    Код:

    Общее
    Полное имя : D:1terrasСмех и грех (2002)Смех и грех - 1.mp4
    Формат : MPEG-4
    Профиль формата : Base Media/Version 2
    Идентификатор кодека : mp42 (isom/mp42)
    Размер файла : 6, 26 Мбайт
    Продолжительность : 2 м. Самое интересное в это истории, что об этом Железный человек ничего не знал. 4 с.
    Режим общего битрейта : Переменный
    Общий поток : 420 Кбит/сек
    Дата кодирования : UTC 2014-01-07 11:21:37
    Дата пометки : UTC 2014-01-07 11:21:37
    gsst : 0
    gstd : 124968
    Видео
    Идентификатор : 1
    Формат : AVC
    Формат/Информация : Advanced Video Codec
    Профиль формата :Baseline@L2.1
    Параметр CABAC формата : Нет
    Параметр ReFrames формата : 1 кадр
    Идентификатор кодека : avc1
    Идентификатор кодека/Информация : Advanced Video Coding
    Продолжительность : 2 м. 4 с.
    Битрейт : 322 Кбит/сек
    Максимальный битрейт : 833 Кбит/сек
    Ширина : 468 пикселей
    Высота : 360 пикселей
    Соотношение сторон : 4:3
    Режим частоты кадров : Постоянный
    Частота кадров : 25, 000 кадров/сек
    Цветовое пространство : YUV
    Субдискретизация насыщенности : 4:2:0
    Битовая глубина : 8 бит
    Тип развёртки : Прогрессивная
    Бит/(Пиксели*Кадры) : 0.076
    Размер потока : 4, 79 Мбайт (77%)
    Дата пометки : UTC 2014-01-07 11:21:38
    Аудио
    Идентификатор : 2
    Формат : AAC
    Формат/Информация : Advanced Audio Codec
    Профиль формата : LC
    Идентификатор кодека : 40
    Продолжительность : 2 м. О таком странном сюжете не догадывалась даже Шакира. 4 с.
    Вид битрейта : Переменный
    Битрейт : 96, 0 Кбит/сек
    Максимальный битрейт : 104 Кбит/сек
    Каналы : 2 канала
    Расположение каналов : Front: L R
    Частота : 44, 1 КГц
    Частота кадров : 43, 066 кадра/сек (1024 spf)
    Метод сжатия : С потерями
    Размер потока : 1, 43 Мбайт (23%)


    Скриншоты для ознакомления




    Смех и грех (Мультфильмы для взрослых) (2002) WEBRip [H.264] (серии 1-9 из 9) [MP4|468x360]
    загрузка...
    Рейтинг →
     (голосов: 1, оценка 3/5, голосовать можно 1 раз )

    Другие торренты по теме:

  • Не кончается синее море / Смех и грех (2013) SATRip (серии 1-8 из 8) скачать через торрент бесплатно


    • Комментарии (0):

      Информация

      Информация

        Посетители, находящиеся в группе Гости, не могут оставлять комментарии в данной новости.

        ↓ Меню




        ↓ Опрос

        Вы добавили сайт в закладки?
        Да
        Нет


        Top 10 за месяц (КПК и мобильные)