.
Авторизация | Регистрация
Хочешь лучшие торренты? Добавь свой email!
Добавить

Торрент скачать бесплатно

» » Супружеский долг / Satisfaction (2015) WEB-DLRip [H.264] (сезон 2, серии 1-8 из 10) BaibaKo [MP4|1280x720] торрент скачать бесплатно




    Супружеский долг / Satisfaction (2015) WEB-DLRip [H.264] (сезон 2, серии 1-8 из 10) BaibaKo [MP4|1280x720] торрент скачать бесплатно

    Опубликовал: Админ | Дата: 8-03-2016, 04:00 | Просмотров: 56

    Производство: США
    Жанр: драма
    Режиссер: Кевин Брэй, Дженнифер Гетцингер, Майк Листо
    Актеры: Мэтт Пассмор, Стефани Зостак, Майкл ДеШон, Джин ВерДель Александр, Чейз Андерсон, Авис-Мари Барнс, Майкл Бисли, Эйприл Биллингсли, Брэдли Бауэн

    Описание

    Инвестиционный банкир Нил Труман обнаруживает, что его собственная жена пользуется услугами мужского эскорт-сервиса. Это неприятное открытие наводит главного героя на одну интересную идею...
    Супружеский долг (Satisfaction) – это провокационный драматический сериал, который исследует современный брак людей, переживающих кризис среднего возраста. Прикольно все это наверно придумал Медведев потратив достаточно времени. Через призму одной пары, Нила Трумэна, и его жены Грейс, этот сериал отвечает на вопрос: Что вы будете делать, когда всего того, что вы имеете, будет недостаточно?, исследуя самые шокирующие и нетрадиционные варианты ответа на него.…

    Продолжительность: ~ 00: 43: 00 серия
    Качество видео: WEB-DLRip 720p
    Перевод: Многоголосый закадровый, профессиональный -BaibaKo
    Автор перевода: Татьяна Ланцетова и Тара
    Озвучка: Сергей Корчак, Александр Фурман, Татьяна Оболевич и Юлия Котурбаш
    Реклама: присутствуют голосовые и текстовые вставки рекламы
    Видео: AVC/H.264 (High@L3.1 ), 1280x720 (16: 9), ~4017 Кбит/сек
    Аудио: AAC, 2 канала, 192 Кбит/сек - русский (многоголосый закадровый)
    Код:

    Полное имя : O:Satisfaction_s2_WEB-DL720p_BaibaKo_[NNM-CLUB]Satisfaction.s02e01.HD720p.WEB-DL.Rus.BaibaKo.tv.mp4
    Формат : MPEG-4
    Профиль формата : Base Media
    Идентификатор кодека : isom
    Размер файла : 1, 27 Гбайт
    Продолжительность : 43 м.
    Общий поток : 4215 Кбит/сек
    Программа кодирования : XviD4PSP 7.0.129
    Видео
    Идентификатор : 1
    Формат : AVC
    Формат/Информация : Advanced Video Codec
    Профиль формата :High@L3.1
    Параметр CABAC формата : Нет
    Параметр ReFrames формата : 2 кадра
    Параметр GOP формата : M=2, N=90
    Идентификатор кодека : avc1
    Идентификатор кодека/Информация : Advanced Video Coding
    Продолжительность : 43 м.
    Битрейт : 4017 Кбит/сек
    Ширина : 1280 пикселей
    Высота : 720 пикселей
    Соотношение сторон : 16:9
    Режим частоты кадров : Переменный
    Частота кадров : 23, 976 кадра/сек
    Минимальная частота кадров : 11, 905 кадров/сек
    Максимальная частота кадров : 25, 000 кадров/сек
    Цветовое пространство : YUV
    Субдискретизация насыщенности : 4:2:0
    Битовая глубина : 8 бит
    Тип развёртки : Прогрессивная
    Бит/(Пиксели*Кадры) : 0.182
    Размер потока : 1, 21 Гбайт (95%)
    Основные цвета : BT.709
    Характеристики трансфера : BT.709
    Коэффициенты матрицы : BT.709
    Аудио
    Идентификатор : 2
    Формат : AAC
    Формат/Информация : Advanced Audio Codec
    Профиль формата : LC
    Идентификатор кодека : 40
    Продолжительность : 43 м.
    Вид битрейта : Постоянный
    Битрейт : 192 Кбит/сек
    Каналы : 2 канала
    Расположение каналов : Front: L R
    Частота : 48, 0 КГц
    Метод сжатия : С потерями
    Размер потока : 59, 2 Мбайт (5%)
    Язык : Russian


    Скриншоты для ознакомления




    Супружеский долг/Satisfaction (2015) WEB-DLRip [H.264] (сезон 2, серии 1-8 из 10) BaibaKo [MP4|1280x720]
    загрузка...
    Рейтинг →
     (голосов: 1, оценка 3/5, голосовать можно 1 раз )

    Другие торренты по теме:

  • Супружеский долг / Satisfaction (2014) WEB-DL [H.264 / 720p-LQ] (Сезон 1, Серии 1-5 из 10) BaibaKo (обновляемая)
  • Супружеский долг / Satisfaction (2014) WEB-DL [H.264 / 1080p-LQ] (Сезон 1, Серии 1-5 из 10) BaibaKo (обновляемая)
  • Супружеский долг / Satisfaction (2015) WEB-DLRip (сезон 2, серии 1 из 10) Baibako [MP4|720x400] скачать через торрент бесплатно
  • Супружеский долг / Satisfaction (2014) WEB-DLRip [H.264] (сезон 1, серии 1-10 из 10) BaibaKo [MP4|1280x720]


    • Комментарии (0):

      Информация

      Информация

        Посетители, находящиеся в группе Гости, не могут оставлять комментарии в данной новости.

        ↓ Меню




        ↓ Опрос

        Вы добавили сайт в закладки?
        Да
        Нет


        Top 10 за месяц (КПК и мобильные)