.
Авторизация | Регистрация
Хочешь лучшие торренты? Добавь свой email!
Добавить

Торрент скачать бесплатно

» » Люцифер / Lucifer (2016) WEB-DLRip [H.264] (сезон 1, серии 1 из 13) BaibaKo [MP4|720x400] торрент скачать бесплатно




    Люцифер / Lucifer (2016) WEB-DLRip [H.264] (сезон 1, серии 1 из 13) BaibaKo [MP4|720x400] торрент скачать бесплатно

    Опубликовал: Админ | Дата: 28-01-2016, 04:01 | Просмотров: 154

    Производство: США/Aggressive Mediocrity, DC Entertainment, Jerry Bruckheimer Television
    Жанр: фэнтези
    Режиссер: Нэйтан Хоуп, Лен Уайзман, Майрзи Алмас
    Актеры: Том Эллис, Лорен Джерман, Лесли-Энн Брандт, Кевин Алехандро, Рэйчел Харрис, Д.Б. Вудсайд, Скарлет Эстевез, Локлин Манро, Ивэн Арнольд, Эмили Мэддисон и др.

    Описание

    Заскучавший и несчастный повелитель преисподней, Люцифер Морнингстар оставил свой престол и отправился в современный Лос-Анджелес, где основал ночной клуб Lux. Очаровательный, харизматичный и дьявольски привлекательный Люцифер наслаждается своим отдыхом — вином, женщинами и музыкой — пока красивая поп-звезда не оказывается убитой на пороге его клуба…

    Дата мировой премьеры: 25 января 2016
    Продолжительность: ~00: 44: 00 серия
    Качество видео: WEB-DLRip
    Перевод: Многоголосый закадровый, профессиональный -BaibaKo
    Автор перевода: Ольга Пашкова и Наталья Захарова
    Озвучка: Светлана Доманова, Юля Малахова, Алексей Кузнецов и Олекса Мельник
    Видео: AVC/H.264 (Baseline@L3.0 ), 720x400 (16: 9), ~1536 Кбит/сек
    Аудио #1: AAC, 2 канала, 160 Кбит/сек - русский (многоголосый закадровый)
    Аудио #2: AAC, 2 канала, 160 Кбит/сек - английский (оригинальный)
    Код:

    Полное имя : F:Lucifer_s1_WEB-DLRip_x264_BaibaKo_[NNM-CLUB]Lucifer.s01e01.WEB-DLRip.x264.Rus.Eng.BaibaKo.tv.mp4
    Формат : MPEG-4
    Профиль формата : Base Media/Version 2
    Идентификатор кодека : mp42
    Размер файла : 600 Мбайт
    Продолжительность : 45 м.
    Режим общего битрейта : Переменный
    Общий поток : 1864 Кбит/сек
    Программа кодирования : HandBrake 0.10.0 2014112200
    Видео
    Идентификатор : 1
    Формат : AVC
    Формат/Информация : Advanced Video Codec
    Профиль формата :Baseline@L3.1
    Параметр CABAC формата : Нет
    Параметр ReFrames формата : 3 кадра
    Идентификатор кодека : avc1
    Идентификатор кодека/Информация : Advanced Video Coding
    Продолжительность : 45 м.
    Битрейт : 1536 Кбит/сек
    Ширина : 720 пикселей
    Высота : 400 пикселей
    Соотношение сторон : 16:9
    Режим частоты кадров : Переменный
    Частота кадров : 23, 976 кадра/сек
    Минимальная частота кадров : 23, 974 кадра/сек
    Максимальная частота кадров : 23, 981 кадра/сек
    Цветовое пространство : YUV
    Субдискретизация насыщенности : 4:2:0
    Битовая глубина : 8 бит
    Тип развёртки : Прогрессивная
    Бит/(Пиксели*Кадры) : 0.222
    Размер потока : 495 Мбайт (82%)
    Библиотека кодирования : x264 core 142 r2479 dd79a61
    Настройки программы : cabac=0/ref=3/deblock=1:0:0/analyse=0x1:0x111/me=hex/subme=7/psy=1/psy_rd=1.00:0.00/mixed_ref=1/me_range=16/chroma_me=1/trellis=1/8x8dct=0/cqm=0/deadzone=21, 11/fast_pskip=1/chroma_qp_offset=-2/threads=6/lookahead_threads=1/sliced_threads=0/nr=0/decimate=1/interlaced=0/bluray_compat=0/constrained_intra=0/bframes=0/weightp=0/keyint=240/keyint_min=24/scenecut=40/intra_refresh=0/rc_lookahead=40/rc=2pass/mbtree=1/bitrate=1536/ratetol=1.0/qcomp=0.60/qpmin=0/qpmax=69/qpstep=4/cplxblur=20.0/qblur=0.5/vbv_maxrate=14000/vbv_bufsize=14000/nal_hrd=none/filler=0/ip_ratio=1.40/aq=1:1.00
    Основные цвета : BT.709
    Характеристики трансфера : BT.709
    Коэффициенты матрицы : BT.709
    Аудио #1
    Идентификатор : 2
    Формат : AAC
    Формат/Информация : Advanced Audio Codec
    Профиль формата : LC
    Идентификатор кодека : 40
    Продолжительность : 45 м.
    Вид битрейта : Переменный
    Битрейт : 160 Кбит/сек
    Каналы : 2 канала
    Расположение каналов : Front: L R
    Частота : 48, 0 КГц
    Метод сжатия : С потерями
    Размер потока : 51, 6 Мбайт (9%)
    Заголовок : Stereo
    Язык : Russian
    Аудио #2
    Идентификатор : 3
    Формат : AAC
    Формат/Информация : Advanced Audio Codec
    Профиль формата : LC
    Идентификатор кодека : 40
    Продолжительность : 45 м.
    Вид битрейта : Переменный
    Битрейт : 160 Кбит/сек
    Каналы : 2 канала
    Расположение каналов : Front: L R
    Частота : 48, 0 КГц
    Метод сжатия : С потерями
    Размер потока : 51, 5 Мбайт (9%)
    Заголовок : Stereo
    Язык : English


    Скриншоты для ознакомления




    Люцифер/Lucifer (2016) WEB-DLRip [H.264] (сезон 1, серии 1 из 13) BaibaKo [MP4|720x400]
    загрузка...
    Рейтинг →
     (голосов: 1, оценка 4/5, голосовать можно 1 раз )

    Другие торренты по теме:

  • Люцифер / Lucifer (2015) HDTV [H.264 / 720p-LQ] (сезон 1, серия 1 из ) [EN / RU, EN Sub] скачать через торрент бесплатно
  • Люцифер / Lucifer (2015) HDTV [H.264 / 1080p] (сезон 1, серии 1 из ) NewStudio (обновляемая) скачать через торрент бесплатно
  • Люцифер / Lucifer (2015) HDTVRip (сезон 1, серия 1 из ) (NewStudio) (обновляемая) скачать через торрент бесплатно
  • Люцифер / Lucifer (2015) HDTV [H.264 / 720p-LQ] (сезон 1, серия 1 из ) (NewStudio) (обновляемая) скачать через торрент бесплатно
  • Люцифер / Lucifer (2015) WEB-DLRip (сезон 1, серия 1 из 13) Alternative Production (обновляемая) скачать через торрент бесплатно
  • Люцифер / Lucifer (2016) WEB-DL [H.264 / 720p-LQ] (сезон 1, серии 1 из 13) BaibaKo (обновляемая)
  • Люцифер / Lucifer (2015) WEB-DLRip (сезон 1, серии 1 из 13) BaibaKo (обновляемая)
  • Люцифер / Lucifer (2015) WEB-DL [H.264 / 720p-LQ] (сезон 1, серии 1-2 из 13) IdeaFilm (обновляемая)


    • Комментарии (0):

      Информация

      Информация

        Посетители, находящиеся в группе Гости, не могут оставлять комментарии в данной новости.

        ↓ Меню




        ↓ Опрос

        Вы добавили сайт в закладки?
        Да
        Нет


        Top 10 за месяц (КПК и мобильные)