.
Авторизация | Регистрация
Хочешь лучшие торренты? Добавь свой email!
Добавить

Торрент скачать бесплатно

» » Нереальная история (2011-2013) WEBRip [H.264] (сезон 1-3, серии 1-60 из 60) [MP4|720х404] торрент скачать бесплатно




    Нереальная история (2011-2013) WEBRip [H.264] (сезон 1-3, серии 1-60 из 60) [MP4|720х404] торрент скачать бесплатно

    Опубликовал: Админ | Дата: 20-01-2016, 04:01 | Просмотров: 105

    Производство: Yellow, Black and White по заказу СТС
    Жанр: Сатира, юмор
    Автор идеи/Режиссер: Алексей Троцюк/Кирилл Папакуль, Кирилл Кузин, Антон Федотов, Андрей Першин
    Актеры: Дмитрий Брекоткин, Андрей Рожков, Дмитрий Соколов, Сергей Нетиевский, Вячеслав Мясников, Олег Комаров, Ольга Тумайкина, Сергей Дорогов, Эдуард Радзюкевич, Татьяна Рыбинец, Аслан Бижоев, Андрей Капустин, Михаил Башкатов, Анжелика Каширина, Евгения Крегжде, Маруся Зыкова, Маргарита Волкова, Кристина Асмус, Владимир Зайцев, Светлана Малюкова, Александр Соколовский, Александр Самойленко, Филипп Бледный, Ольга Волкова, Анвар Халилулаев, Дмитрий Прокофьев, Виктор Полторацкий, Борис Эстрин, Евгений Герчаков, Денис Ясик, Максим Коновалов, Алексей Дмитриев, Геннадий Венгеров, Владимир Кисаров, Сергей Лунин, Любовь Тихомирова, Евгений Сморигин

    Описание

    Нереальная история - это сатирический альманах, в основу которого легли наиболее известные события российской истории с древнейших времен до наших дней.
    Знаешь ли ты, что Иван Грозный не убивал своего сына? Что первые гаишники появились еще до крещения Руси? Что Наталья Гончарова была первой русской гламурной тусовщицей? Наконец, что первый Гаджет изобрели в 1930-х в Советском Союзе?
    Скоро узнаешь, что на самом деле все было не так, как написано в учебниках по истории, от первобытного общества до бандитских 90-х.

    Продолжительность: ~00: 24: 00
    Качество видео: WEBRip
    Видео: AVC/H.264, 720х404, ~1200 Kbps
    Аудио: AAC, 2 ch, 126 kbps, VBR
    Релиз содержит видео, взятое с официального сайта, в видео отсутствует логотип СТС.
    Код:

    General
    Complete name : НЕРЕАЛЬНАЯ ИСТОРИЯ.mp4
    Format : MPEG-4
    Format profile : Base Media/Version 2
    Codec ID : mp42
    Overall bit rate mode : Variable
    Overall bit rate : 1 328 Kbps
    Encoded date : UTC 2011-09-25 08:08:25
    Tagged date : UTC 2011-09-25 08:08:25
    Video
    ID : 1
    Format : AVC
    Format/Info : Advanced Video Codec
    Format profile :Main@L3.1
    Format settings, CABAC : Yes
    Format settings, ReFrames : 4 frames
    Codec ID : avc1
    Codec ID/Info : Advanced Video Coding
    Bit rate mode : Constant
    Bit rate : 1 200 Kbps
    Width : 720 pixels
    Height : 404 pixels
    Display aspect ratio : 16:9
    Frame rate mode : Constant
    Frame rate : 25.000 fps
    Standard : PAL
    Color space : YUV
    Chroma subsampling : 4:2:0
    Bit depth : 8 bits
    Scan type : Progressive
    Bits/(Pixel*Frame) : 0.164
    Stream size : 207 MiB (90%)
    Language : English
    Encoded date : UTC 2011-09-25 08:08:25
    Tagged date : UTC 2014-02-18 08:39:15
    Color range : Limited
    Audio
    ID : 2
    Format : AAC
    Format/Info : Advanced Audio Codec
    Format profile : LC
    Codec ID : 40
    Source duration : 24mn 5s
    Bit rate mode : Variable
    Bit rate : 126 Kbps
    Maximum bit rate : 205 Kbps
    Channel(s) : 2 channels
    Channel positions : Front: L R
    Sampling rate : 44.1 KHz
    Compression mode : Lossy
    Stream size : 21.6 MiB (9%)
    Source stream size : 21.6 MiB (9%)
    Language : English
    Encoded date : UTC 2011-09-25 08:08:25
    Tagged date : UTC 2014-02-18 08:39:15


    Скриншоты для ознакомления




    Нереальная история (2011-2013) WEBRip [H.264] (сезон 1-3, серии 1-60 из 60) [MP4|720х404]
    загрузка...
    Рейтинг →
     (голосов: 1, оценка 4/5, голосовать можно 1 раз )

    Другие торренты по теме:

  • Нереальная история (2011-2013) SATRip [1-3 сезон: 1-60 выпуск из 60] скачать через торрент бесплатно
  • Нереальная история. ДПС (2011) WEBRip [H.264] (серии 1-9 из 9) [MP4|720x404] [нарезка]
  • Нереальная история. Менделеев и раствор (2012-2013) WEBRip [H.264] (серии 1-13 из 13) [MP4|720x404] [нарезка]


    • Комментарии (0):

      Информация

      Информация

        Посетители, находящиеся в группе Гости, не могут оставлять комментарии в данной новости.

        ↓ Меню




        ↓ Опрос

        Вы добавили сайт в закладки?
        Да
        Нет


        Top 10 за месяц (КПК и мобильные)