.
Авторизация | Регистрация
Хочешь лучшие торренты? Добавь свой email!
Добавить

Торрент скачать бесплатно

» » Нереальная история. ДПС (2011) WEBRip [H.264] (серии 1-9 из 9) [MP4|720x404] [нарезка] торрент скачать бесплатно




    Нереальная история. ДПС (2011) WEBRip [H.264] (серии 1-9 из 9) [MP4|720x404] [нарезка] торрент скачать бесплатно

    Опубликовал: Админ | Дата: 17-01-2016, 04:13 | Просмотров: 102

    Телекомпания: СТС
    Жанр: Сатира, юмор

    Описание

    Пётр Иванович(Сергей Нетиевский) и Сидор(Сергей Габриэлян) сначала — ленивые бродяги, просящие милостыню у проезжающих мимо купцов. Потом они придумали брать плату за проезд — еду. Позднее присвоили себе участок дороги и назвали его Дорога Петра и Сидора (ДПС) И пошло у них, поехало ...
    Продолжительность: ~00: 04: 30 серия
    Качество видео: WEBRip
    Видео: AVC/H.264, 720х404, ~1150 Kbps
    Аудио: AAC, 2 ch, 126 Kbps, VBR
    Код:

    Format : MPEG-4
    Format profile : Base Media/Version 2
    Codec ID : mp42
    Overall bit rate mode : Variable
    Overall bit rate : 1 303 Kbps
    Encoded date : UTC 2011-11-06 22:59:34
    Tagged date : UTC 2011-11-06 22:59:34
    ©TIM : 00:00:00:00
    ©TSC : 25
    ©TSZ : 1
    Video
    ID : 1
    Format : AVC
    Format/Info : Advanced Video Codec
    Format profile :Main@L3.1
    Format settings, CABAC : Yes
    Format settings, ReFrames : 3 frames
    Codec ID : avc1
    Codec ID/Info : Advanced Video Coding
    Bit rate mode : Constant
    Bit rate : 1 150 Kbps
    Width : 720 pixels
    Height : 404 pixels
    Display aspect ratio : 16:9
    Frame rate mode : Constant
    Frame rate : 25.000 fps
    Standard : PAL
    Color space : YUV
    Chroma subsampling : 4:2:0
    Bit depth : 8 bits
    Scan type : Progressive
    Bits/(Pixel*Frame) : 0.165
    Stream size : 29.5 MiB (90%)
    Language : English
    Encoded date : UTC 2011-11-06 22:59:34
    Tagged date : UTC 2014-02-18 10:15:53
    Color range : Limited
    Audio
    ID : 2
    Format : AAC
    Format/Info : Advanced Audio Codec
    Format profile : LC
    Codec ID : 40
    Bit rate mode : Variable
    Bit rate : 126 Kbps
    Maximum bit rate : 202 Kbps
    Channel(s) : 2 channels
    Channel positions : Front: L R
    Sampling rate : 44.1 KHz
    Compression mode : Lossy
    Stream size : 3.16 MiB (10%)
    Source stream size : 3.16 MiB (10%)
    Language : English
    Encoded date : UTC 2011-11-06 22:59:34
    Tagged date : UTC 2014-02-18 10:15:53


    Скриншоты для ознакомления




    Нереальная история. ДПС (2011) WEBRip [H.264] (серии 1-9 из 9) [MP4|720x404] [нарезка]
    загрузка...
    Рейтинг →
     (голосов: 1, оценка 4/5, голосовать можно 1 раз )

    Другие торренты по теме:

  • Нереальная история (2011-2013) SATRip [1-3 сезон: 1-60 выпуск из 60] скачать через торрент бесплатно
  • Нереальная история. Менделеев и раствор (2012-2013) WEBRip [H.264] (серии 1-13 из 13) [MP4|720x404] [нарезка]
  • Нереальная история (2011-2013) WEBRip [H.264] (сезон 1-3, серии 1-60 из 60) [MP4|720х404]


    • Комментарии (0):

      Информация

      Информация

        Посетители, находящиеся в группе Гости, не могут оставлять комментарии в данной новости.

        ↓ Меню




        ↓ Опрос

        Вы добавили сайт в закладки?
        Да
        Нет


        Top 10 за месяц (КПК и мобильные)