.
Авторизация | Регистрация
Хочешь лучшие торренты? Добавь свой email!
Добавить

Торрент скачать бесплатно

» » Приключения Кота в сапогах / The Adventures of Puss in Boots (2015) WEBRip [H.264] (Сезон 2, серии 1-11 из 11) [MP4 720x406] [EN] скачать через торрент бесплатно




    Приключения Кота в сапогах / The Adventures of Puss in Boots (2015) WEBRip [H.264] (Сезон 2, серии 1-11 из 11) [MP4 720x406] [EN] скачать через торрент бесплатно

    Опубликовал: Админ | Дата: 7-01-2016, 04:02 | Просмотров: 179

    Производство: США, Netflix
    Жанр: Приключения, Комедия, Семейный
    Режиссер: Дэвид Макки Фассетт
    Актеры: Кот в Сапогах и остальная банда

    Описание

    Кот в сапогах волею случая вынужден охранять тайный город Сан Лоренцо и защищать его жителей от бесчисленного количества негодяев.

    Дата мировой премьеры: 16 января 2015
    Релиз от: Netflix
    Продолжительность: ~ 00: 23: 00 серия
    Качество видео: WEBRip
    Перевод: Отсутствует
    Язык: Английский
    Видео: AVC/H.264, 720x406, ~902 Кбит/сек
    Аудио: AAC, 2 ch, 128 Кбит/сек, CBR
    Код:

    Общее
    Полное имя : D:Приключения кота в сапогах (S02) WEBRip.x264The.Adventures.Of.Puss.In.Boots.S02E01.mp4
    Формат : MPEG-4
    Профиль формата : Base Media/Version 2
    Идентификатор кодека : mp42 (isom/iso2/avc1/mp41)
    Размер файла : 172 Мбайт
    Продолжительность : 23 м.
    Режим общего битрейта : Переменный
    Общий поток : 1037 Кбит/сек
    Название фильма : Netflix movie (852x480)
    Исполнитель : Netflix
    Программа кодирования : HandBrake 0.10.1 2015030800
    Видео
    Идентификатор : 1
    Формат : AVC
    Формат/Информация : Advanced Video Codec
    Профиль формата : Main@L4
    Параметр CABAC формата : Да
    Параметр ReFrames формата : 4 кадра
    Идентификатор кодека : avc1
    Идентификатор кодека/Информация : Advanced Video Coding
    Продолжительность : 23 м.
    Битрейт : 902 Кбит/сек
    Ширина : 720 пикселей
    Высота : 406 пикселей
    Соотношение сторон : 16:9
    Режим частоты кадров : Переменный
    Частота кадров : 23, 976 (23976/1000) кадра/сек
    Минимальная частота кадров : 6, 218 кадров/сек
    Максимальная частота кадров : 23, 974 кадра/сек
    Цветовое пространство : YUV
    Субдискретизация насыщенности : 4:2:0
    Битовая глубина : 8 бит
    Тип развёртки : Прогрессивная
    Бит/(Пиксели*Кадры) : 0.129
    Размер потока : 149 Мбайт (87%)
    Библиотека кодирования : x264 core 142 r2479 dd79a61
    Настройки программы : cabac=1/ref=1/deblock=1:0:0/analyse=0x1:0x111/me=hex/subme=2/psy=1/psy_rd=1.00:0.00/mixed_ref=0/me_range=16/chroma_me=1/trellis=0/8x8dct=0/cqm=0/deadzone=21, 11/fast_pskip=1/chroma_qp_offset=0/threads=12/lookahead_threads=3/sliced_threads=0/nr=0/decimate=1/interlaced=0/bluray_compat=0/constrained_intra=0/bframes=3/b_pyramid=2/b_adapt=1/b_bias=0/direct=1/weightb=1/open_gop=0/weightp=1/keyint=240/keyint_min=24/scenecut=40/intra_refresh=0/rc_lookahead=10/rc=crf/mbtree=1/crf=18.0/qcomp=0.60/qpmin=0/qpmax=69/qpstep=4/vbv_maxrate=20000/vbv_bufsize=25000/crf_max=0.0/nal_hrd=none/filler=0/ip_ratio=1.40/aq=1:1.00
    Цветовой диапазон : Limited
    Основные цвета : BT.601 NTSC
    Характеристики трансфера : BT.709
    Коэффициенты матрицы : BT.601
    Аудио
    Идентификатор : 2
    Формат : AAC
    Формат/Информация : Advanced Audio Codec
    Профиль формата : LC
    Идентификатор кодека : 40
    Продолжительность : 23 м.
    Вид битрейта : Переменный
    Битрейт : 128 Кбит/сек
    Каналы : 2 канала
    Расположение каналов : Front: L R
    Частота : 48, 0 КГц
    Частота кадров : 46, 875 кадров/сек (1024 spf)
    Метод сжатия : С потерями
    Размер потока : 21, 2 Мбайт (12%)
    Заголовок : Stereo/Stereo
    Default : Да
    Alternate group : 1


    Скриншоты для ознакомления




    Приключения Кота в сапогах/The Adventures of Puss in Boots (2015) WEBRip [H.264] (Сезон 2, серии 1-11 из 11) [MP4 720x406] [EN]
    загрузка...
    Рейтинг →
     (голосов: 1, оценка 4/5, голосовать можно 1 раз )

    Другие торренты по теме:

  • Приключения кота в сапогах / The Adventures of Puss in Boots (2015) WEBRip [H.264 / 720p-LQ] (Сезон 1, серии 1-2 из ) (NewStudio) (обновляемая) скачать через торрент бесплатно
  • Приключения кота Леопольда (1977-87) BDRip [480p] iPod / iPhone скачать через торрент бесплатно
  • Приключения кота Леопольда (1977-87) BDRip [720p] ATV скачать через торрент бесплатно
  • Приключения кота в сапогах / The Adventures of Puss in Boots (2015) WEB-DLRip (Сезон 1, серии 1-2 из ) (NewStudio) (обновляемая) скачать через торрент бесплатно
  • Раскраска. Приключения кота Леопольда (2013) [JPEG] скачать через торрент бесплатно
  • Татьяна Эдел | Приключения кота Батона [сборник] (2015) [FB2] скачать через торрент бесплатно
  • Новые приключения кота Леопольда. Новогодняя ёлка (2015) WEBRip [H.264 / 720p-LQ] скачать через торрент бесплатно
  • Новые приключения кота Леопольда. Новогодняя ёлка (2015) WEBRip [H.264 / 1080p-LQ] скачать через торрент бесплатно


    • Комментарии (0):

      Информация

      Информация

        Посетители, находящиеся в группе Гости, не могут оставлять комментарии в данной новости.

        ↓ Меню




        ↓ Опрос

        Вы добавили сайт в закладки?
        Да
        Нет


        Top 10 за месяц (КПК и мобильные)