.
Авторизация | Регистрация
Хочешь лучшие торренты? Добавь свой email!
Добавить

Торрент скачать бесплатно

» » Легенды / Legends (2015) WEB-DLRip [H.264] (Сезон 2, серии 1-10 из 10) BaibaKo [MP4|720x400] скачать через торрент бесплатно




    Легенды / Legends (2015) WEB-DLRip [H.264] (Сезон 2, серии 1-10 из 10) BaibaKo [MP4|720x400] скачать через торрент бесплатно

    Опубликовал: Админ | Дата: 2-01-2016, 04:01 | Просмотров: 240

    Производство: США
    Жанр: боевик, триллер, драма, криминал
    Режиссер: Дэвид Семел, Брэд Тернер, Джон Беринг
    Актеры: Шон Бин, Эли Лартер, Эмбер Валлетта, Мэйсон Кук, Тина Мажорино, Роб Майес, Стив Харрис, Моррис Честнат, Джейсон Йоркер, Роксана Бруссо, Дэвид Мюнье, Сэмми Шейк, Омид Абтахи и др.

    Описание

    Работая на ЦРУ, Мартин специализировался на работе под глубоким прикрытием, буквально полностью перевоплощался в другую личность, теперь же он простой частный детектив. Жизнь главного героя круто меняется, когда Мартин узнает, что, возможно, он не тот, кем себя считает. И теперь ему предстоит докопаться до истины: он страдает заурядным раздвоением личности или является частью тайного плана ЦРУ?

    Продолжительность: ~ 00: 43: 00 серия
    Качество видео: WEB-DLRip
    Перевод: Многоголосый закадровый, профессиональный -BaibaKo
    Автор перевода: Ольга Пашкова
    Озвучка: Ольга Мотрич, Елена Григорьева, Сергей Корчак, Акмал Гурезов и Андрей Корзаченко
    Видео: AVC/H.264 (Baseline@L3.0 ), 720x400 (16: 9), ~1536 Кбит/сек
    Аудио #1: AAC, 2 канала, 163 Кбит/сек - русский (многоголосый закадровый)
    Аудио #2: AAC, 2 канала, 163 Кбит/сек - английский (оригинальный)
    Код:

    Полное имя : N:Legends_s2_WEB-DLRip_x264_BaibaKo_[NNM-CLUB]Legends.s02e01.WEB-DLRip.x264.Rus.Eng.BaibaKo.tv.mp4
    Формат : MPEG-4
    Профиль формата : Base Media
    Идентификатор кодека : isom
    Размер файла : 575 Мбайт
    Продолжительность : 43 м.
    Режим общего битрейта : Переменный
    Общий поток : 1866 Кбит/сек
    Дата кодирования : UTC 2015-10-29 13:23:26
    Дата пометки : UTC 2015-10-29 13:23:26
    Видео
    Идентификатор : 1
    Формат : AVC
    Формат/Информация : Advanced Video Codec
    Профиль формата :Baseline@L3.0
    Параметр CABAC формата : Нет
    Параметр ReFrames формата : 1 кадр
    Идентификатор кодека : avc1
    Идентификатор кодека/Информация : Advanced Video Coding
    Продолжительность : 43 м.
    Битрейт : 1536 Кбит/сек
    Максимальный битрейт : 7557 Кбит/сек
    Ширина : 720 пикселей
    Высота : 400 пикселей
    Соотношение сторон : 16:9
    Режим частоты кадров : Переменный
    Частота кадров : 23, 976 кадра/сек
    Минимальная частота кадров : 23, 974 кадра/сек
    Максимальная частота кадров : 23, 981 кадра/сек
    Цветовое пространство : YUV
    Субдискретизация насыщенности : 4:2:0
    Битовая глубина : 8 бит
    Тип развёртки : Прогрессивная
    Бит/(Пиксели*Кадры) : 0.222
    Размер потока : 473 Мбайт (82%)
    Библиотека кодирования : x264 core 142 r2479 dd79a61
    Настройки программы : cabac=0/ref=1/deblock=1:0:0/analyse=0x1:0x111/me=hex/subme=2/psy=1/psy_rd=1.00:0.00/mixed_ref=0/me_range=16/chroma_me=1/trellis=0/8x8dct=0/cqm=0/deadzone=21, 11/fast_pskip=1/chroma_qp_offset=0/threads=12/lookahead_threads=3/sliced_threads=0/nr=0/decimate=1/interlaced=0/bluray_compat=0/constrained_intra=0/bframes=0/weightp=0/keyint=240/keyint_min=24/scenecut=40/intra_refresh=0/rc_lookahead=10/rc=2pass/mbtree=1/bitrate=1536/ratetol=1.0/qcomp=0.60/qpmin=0/qpmax=69/qpstep=4/cplxblur=20.0/qblur=0.5/vbv_maxrate=10000/vbv_bufsize=10000/nal_hrd=none/filler=0/ip_ratio=1.40/aq=1:1.00
    Дата кодирования : UTC 2036-02-06 06:28:16
    Дата пометки : UTC 2015-10-29 13:23:50
    Основные цвета : BT.709
    Характеристики трансфера : BT.709
    Коэффициенты матрицы : BT.709
    Аудио #1
    Идентификатор : 2
    Формат : AAC
    Формат/Информация : Advanced Audio Codec
    Профиль формата : LC
    Идентификатор кодека : 40
    Продолжительность : 43 м.
    Вид битрейта : Переменный
    Битрейт : 163 Кбит/сек
    Максимальный битрейт : 221 Кбит/сек
    Каналы : 2 канала
    Расположение каналов : Front: L R
    Частота : 48, 0 КГц
    Метод сжатия : С потерями
    Размер потока : 50, 2 Мбайт (9%)
    Язык : Russian
    Дата кодирования : UTC 2015-10-29 13:23:38
    Дата пометки : UTC 2015-10-29 13:23:50
    Аудио #2
    Идентификатор : 3
    Формат : AAC
    Формат/Информация : Advanced Audio Codec
    Профиль формата : LC
    Идентификатор кодека : 40
    Продолжительность : 43 м.
    Вид битрейта : Переменный
    Битрейт : 163 Кбит/сек
    Максимальный битрейт : 235 Кбит/сек
    Каналы : 2 канала
    Расположение каналов : Front: L R
    Частота : 48, 0 КГц
    Метод сжатия : С потерями
    Размер потока : 50, 1 Мбайт (9%)
    Язык : English
    Дата кодирования : UTC 2015-10-29 13:23:43
    Дата пометки : UTC 2015-10-29 13:23:50


    Скриншоты для ознакомления




    Легенды/Legends (2015) WEB-DLRip [H.264] (Сезон 2, серии 1-10 из 10) BaibaKo [MP4|720x400]
    загрузка...
    Рейтинг →
     (голосов: 1, оценка 4/5, голосовать можно 1 раз )

    Другие торренты по теме:

  • Легенды / Legends (2014) WEB-DLRip [H.264 / 720p-LQ] (сезон 1, серии 1-7 из 10) LostFilm (обновляемая)
  • Легенды / Legends (2014) WEB-DLRip (Сезон 1, серии 1-7 из 10) LostFilm (Обновляемая)
  • Легенды / Legends (2014) WEB-DLRip [H.264 / 1080p-LQ] (Сезон 1, серии 1-7 из 10) LostFilm (Обновляемая)
  • Легенды / Legends (2014) WEB-DLRip (Сезон 1, серия 01-07 из 10) (AlexFilm) (обновляемая)
  • Легенды / Legends (2014) WEB-DL [H.264 / 720p-LQ] (Сезон 1, Серии 1-7 из 10) AlexFilm (обновляемая)
  • Легенды / Legends (2014) WEB-DLRip (Сезон 1, серия 01-07 из 10) (NewStudio) (обновляемая)
  • Легенды (Legends) / (Сезон 1, серии 1-7 из 10) BaibaKo (2014) [MP4|720x400] <WEB-DLRip H.264>
  • Легенды (Legends) / (Сезон 1, серии 1-6 из 10) LostFilm (2014) [MP4|1280x720] <WEB-DL H.264>


    • Комментарии (0):

      Информация

      Информация

        Посетители, находящиеся в группе Гости, не могут оставлять комментарии в данной новости.

        ↓ Меню




        ↓ Опрос

        Вы добавили сайт в закладки?
        Да
        Нет


        Top 10 за месяц (КПК и мобильные)