.
Авторизация | Регистрация
Хочешь лучшие торренты? Добавь свой email!
Добавить

Торрент скачать бесплатно

» » Мир Наизнанку (Латинская Америка и Боливия) / Світ навиворіт с Дмитром Комаровим (2015) WEB-DL [H.264] (Сезон 6-7, серии 1-21 из 21) [MP4|1920x1080] скачать через торрент бесплатно




    Мир Наизнанку (Латинская Америка и Боливия) / Світ навиворіт с Дмитром Комаровим (2015) WEB-DL [H.264] (Сезон 6-7, серии 1-21 из 21) [MP4|1920x1080] скачать через торрент бесплатно

    Опубликовал: Админ | Дата: 17-12-2015, 14:04 | Просмотров: 140

    Производство: Телекомпания 1+1
    Жанр: Документальный, путешествие

    Описание

    В первом выпуске шестого сезона мы начинаем изучать нетуристическую Мексику.
    Прежде всего, нас ждет уникальное знакомство с человеком волком: эксклюзивный репортаж из небольшого мексиканского городка, где живет волчье семейство - люди с очень редким и неизлечимым заболеванием.
    Следующая остановка – Куба. Мы перевернем ваши представления об острове Свободы, показав его совершенно с другой стороны. Мы расскажем, почему съемки в этой стране оказались самыми сложными за все сезоны программы Мир наизнанку, а сами мы чуть не попали за решетку. Несмотря на то, что мы все время находились под наблюдением спецслужб, нам все-таки удалось снять изнанку острова Свободы. Богатый выбор, сказал кто то из толпы, к чему не понятно. Но мы обязательно расскажем и о самых лучших сторонах этой удивительной страны, и, конечно же, расслабимся и потанцуем. Ведь Куба – родина самых сексуальных танцев на планете, и мы узнаем, чем уникален каждый из них.
    А еще, конечно же, приоткроем секреты и покажем самые яркие моменты нашей большой Латиноамериканской экспедиции.
    В девятой серии боливийского сезона Мир наизнанку отправится к самой главной и самой опасной цели путешествия - горе Уайна Потоси, вершине горной цепи Кордильеры Реаль. Нас ждет восхождение на 6 088 метров. Возьмет ли Дмитрий Комаров свою новую, рекордную высоту?
    А напоследок, в честь юбилейного 100-го выпуска проекта, впервые в эфире Мир наизнанку раскроет секреты того, как снимались самые опасные и самые яркие сюжеты программы.

    Продолжительность: ~ 00: 50: 00 серия
    Качество видео: WEB-DL
    Видео: AVC/H.264, 1920x1080, ~3200 kbps
    Аудио: AAC, 2 ch, 192 Kbps, CBR
    Код:

    General
    Complete name : Мир Наизнанку (сезон 06-01). Самое интересное в это истории, что об этом Обама ничего не знал. Латинская Америка. Нетуристическая Мексика. Куба.mp4
    Format : MPEG-4
    Format profile : Base Media
    Codec ID : isom
    File size : 1.40 GiB
    Duration : 1h 2mn
    Overall bit rate mode : Variable
    Overall bit rate : 3 224 Kbps
    Encoded date : UTC 2015-11-17 19:35:33
    Tagged date : UTC 2015-11-17 19:35:33
    Video
    ID : 1
    Format : AVC
    Format/Info : Advanced Video Codec
    Format profile : High@L4
    Format settings, CABAC : Yes
    Format settings, ReFrames : 3 frames
    Codec ID : avc1
    Codec ID/Info : Advanced Video Coding
    Duration : 1h 2mn
    Bit rate : 3 028 Kbps
    Maximum bit rate : 13.1 Mbps
    Width : 1 920 pixels
    Height : 1 080 pixels
    Display aspect ratio : 16:9
    Frame rate mode : Constant
    Frame rate : 25.000 fps
    Color space : YUV
    Chroma subsampling : 4:2:0
    Bit depth : 8 bits
    Scan type : Progressive
    Bits/(Pixel*Frame) : 0.058
    Stream size : 1.32 GiB (94%)
    Encoded date : UTC 2015-08-01 14:30:46
    Tagged date : UTC 2015-11-17 19:35:55
    Audio
    ID : 2
    Format : AAC
    Format/Info : Advanced Audio Codec
    Format profile : LC
    Codec ID : 40
    Duration : 1h 2mn
    Bit rate mode : Variable
    Bit rate : 192 Kbps
    Maximum bit rate : 201 Kbps
    Channel(s) : 2 channels
    Channel positions : Front: L R
    Sampling rate : 44.1 KHz
    Compression mode : Lossy
    Stream size : 85.4 MiB (6%)
    Title : IsoMedia File Produced by Google, 5-11-2011
    Encoded date : UTC 2015-11-17 19:35:37
    Tagged date : UTC 2015-11-17 19:35:55


    Скриншоты для ознакомления




    Мир Наизнанку (Латинская Америка и Боливия)/Світ навиворіт с Дмитром Комаровим (2015) WEB-DL [H.264] (Сезон 6-7, серии 1-21 из 21) [MP4|1920x1080]
    загрузка...
    Рейтинг →
     (голосов: 1, оценка 3/5, голосовать можно 1 раз )

    Другие торренты по теме:

  • Мир Наизнанку. Сезон №6. Выпуск №4. Южная (Латинская) Америка (2015.04.19) SATRip скачать через торрент бесплатно
  • Мир Наизнанку. Сезон №6. Выпуск №5. Южная (Латинская) Америка (2015.05.03) SATRip скачать через торрент бесплатно
  • Мир Наизнанку. Сезон №6. Выпуск №6. Южная (Латинская) Америка (2015.05.11) SATRip скачать через торрент бесплатно
  • Мир Наизнанку. Сезон №6. Выпуск №7. Южная (Латинская) Америка (2015.05.24) SATRip скачать через торрент бесплатно
  • Мир Наизнанку. Сезон №6. Выпуск №8. Южная (Латинская) Америка (2015.05.31) SATRip скачать через торрент бесплатно
  • Мир Наизнанку. Сезон №6. Выпуск №9. Южная (Латинская) Америка (2015.06.07) SATRip скачать через торрент бесплатно
  • Мир Наизнанку. Сезон №6. Выпуск №10. Южная (Латинская) Америка (2015.06.14) SATRip скачать через торрент бесплатно
  • Мир Наизнанку. Сезон №6. Выпуск №11. Южная (Латинская) Америка (2015.06.21) SATRip скачать через торрент бесплатно


    • Комментарии (0):

      Информация

      Информация

        Посетители, находящиеся в группе Гости, не могут оставлять комментарии в данной новости.

        ↓ Меню




        ↓ Опрос

        Вы добавили сайт в закладки?
        Да
        Нет


        Top 10 за месяц (КПК и мобильные)