.
Авторизация | Регистрация
Хочешь лучшие торренты? Добавь свой email!
Добавить

Торрент скачать бесплатно

» » Могучие рейнджеры: Дино Заряд / Power Rangers Dino Charge (2015) TVRip [H.264] (Сезон 22, серии 1-20 из 22) [MP4|720x400] скачать через торрент бесплатно




    Могучие рейнджеры: Дино Заряд / Power Rangers Dino Charge (2015) TVRip [H.264] (Сезон 22, серии 1-20 из 22) [MP4|720x400] скачать через торрент бесплатно

    Опубликовал: Админ | Дата: 17-12-2015, 14:04 | Просмотров: 621

    Производство: США, Saban Brands
    Жанр: Фантастика, Фэнтези, Боевик, Приключения
    Режиссер: Джонатан Бру, Чарли Хэскелл, Питер Сэлмон, Майк Смит
    Актеры: Бреннан Мейя, Камилль Хайд, Йошуа Сударсо, Майкл Табер, Джеймс Дейвис, Клэир Блэквелдер, Адам Гардинер, Пол Харроп, Кэмпбелл Кули, Ив Гордон, Дави Сантос, Кэролин Дандо, Жасмин Ван Гослига, Джеки Кларк и др.

    Описание

    В Дино Заряде Энергемы (ранее Призмы Парагона) были даны пришельцем многим динозаврам, чтобы сохранить их, но они были утеряны, когда в Землю врезался астероид и как зеркало стальное истребил динозавров. В наше время межгалактический охотник за головами начинает обыскивать Землю в поисках призм, дабы получить их силу и уничтожить мир, а потому возникает команда Могучих Рейнджеров, чтобы найти Энергемы (призмы) первыми, сражаясь с охотником за головами и другими угрозами дино-зарядными мечами, бластерами, зордами и мегазордами.
    Семпл
    Продолжительность: ~ 00: 22: 33 серия
    Качество видео: TVRip (рип с DVB)
    Перевод: Многоголосый закадровый, профессиональный
    Видео: AVC/H.264, 720x400, ~1469 kbps
    Аудио: AAC, 2 ch, ~165 kbps, VBR
    Семпл(dropbox): Скачать
    Код:

    Общее
    Полное имя : E:ТоррентыМогучие Рейнджеры-Дино Заряд.Season 22, 20 из 221E. Силы из прошлого.mp4
    Формат : MPEG-4
    Профиль формата : Base Media
    Идентификатор кодека : isom (isom/iso2/avc1/mp41)
    Размер файла : 264 Мбайт
    Продолжительность : 22 м.
    Режим общего битрейта : Переменный
    Общий поток : 1639 Кбит/сек
    Программа кодирования : Lavf54.6.101
    Видео
    Идентификатор : 1
    Формат : AVC
    Формат/Информация : Advanced Video Codec
    Профиль формата : Baseline@L3
    Параметр CABAC формата : Нет
    Параметр ReFrames формата : 4 кадра
    Параметр GOP формата : M=1, N=12
    Идентификатор кодека : avc1
    Идентификатор кодека/Информация : Advanced Video Coding
    Продолжительность : 22 м.
    Битрейт : 1469 Кбит/сек
    Ширина : 720 пикселей
    Высота : 400 пикселей
    Соотношение сторон : 16:9
    Соотношение сторон в оригинале : 16:9
    Режим частоты кадров : Постоянный
    Частота кадров : 25, 000 кадров/сек
    Стандарт вещания : PAL
    Цветовое пространство : YUV
    Субдискретизация насыщенности : 4:2:0
    Битовая глубина : 8 бит
    Тип развёртки : Прогрессивная
    Бит/(Пиксели*Кадры) : 0.204
    Размер потока : 237 Мбайт (90%)
    Цветовой диапазон : Full
    Основные цвета : BT.601 PAL
    Характеристики трансфера : BT.470 System B, BT.470 System G
    Коэффициенты матрицы : BT.601
    Аудио
    Идентификатор : 2
    Формат : AAC
    Формат/Информация : Advanced Audio Codec
    Профиль формата : LC
    Идентификатор кодека : 40
    Продолжительность : 22 м.
    Duration_LastFrame : -19 мс.
    Вид битрейта : Переменный
    Битрейт : 165 Кбит/сек
    Максимальный битрейт : 192 Кбит/сек
    Каналы : 2 канала
    Расположение каналов : Front: L R
    Частота : 48, 0 КГц
    Частота кадров : 46, 875 кадров/сек (1024 spf)
    Метод сжатия : С потерями
    Размер потока : 26, 7 Мбайт (10%)
    Язык : Russian
    Default : Да


    Скриншоты для ознакомления




    Могучие рейнджеры: Дино Заряд/Power Rangers Dino Charge (2015) TVRip [H.264] (Сезон 22, серии 1-20 из 22) [MP4|720x400]
    загрузка...
    Рейтинг →
     (голосов: 1, оценка 5/5, голосовать можно 1 раз )

    Другие торренты по теме:

  • Могучие рейнджеры / Power Rangers (2017) BDRip [H.264 / 720p] [En / Rus Sub]
  • Могучие рейнджеры / Mighty Morphin Power Rangers (1993) TVRip [H.264] (сезон 1, серии 1-60 из 60) [MP4|640x480] скачать через торрент бесплатно
  • Могучие рейнджеры / Mighty Morphin Power Rangers (1994-1995) TVRip (сезон 2, серии 1-52 из 52) 2x2 скачать через торрент бесплатно
  • Могучие рейнджеры / Power Rangers (2017) WEBRip [H.264 / 1080p] [Трейлер]
  • Могучие рейнджеры / Power Rangers (2017) CamRip
  • Могучие рейнджеры / Power Rangers (2017) WEB-DLRip [H.264 / 1080p-LQ] [MVO] [AD]
  • Могучие рейнджеры / Power Rangers (2017) WEB-DLRip [MVO] [AD]
  • Могучие рейнджеры / Power Rangers (2017) WEB-DLRip [AD]


    • Комментарии (0):

      Информация

      Информация

        Посетители, находящиеся в группе Гости, не могут оставлять комментарии в данной новости.

        ↓ Меню




        ↓ Опрос

        Вы добавили сайт в закладки?
        Да
        Нет


        Top 10 за месяц (КПК и мобильные)