.
Авторизация | Регистрация
Хочешь лучшие торренты? Добавь свой email!
Добавить

Торрент скачать бесплатно

» » Алиса знает, что делать! (2012-2015) WEBRip [H.264] (Серии 1-22 из 24 + бонусы) [MP4|960х544] скачать через торрент бесплатно




    Алиса знает, что делать! (2012-2015) WEBRip [H.264] (Серии 1-22 из 24 + бонусы) [MP4|960х544] скачать через торрент бесплатно

    Опубликовал: Админ | Дата: 13-12-2015, 04:07 | Просмотров: 141

    Производство: Россия, Базелевс
    Жанр: Анимация, Приключения, Фантастика
    Режиссер: Игорь Ковалев
    Актеры: Дарья Мельникова, Армен Джигарханян, Анна Ардова, Дмитрий Назаров, Алексей Колган, Ирина Гришина, Валерий Сторожик

    Описание

    На Земле 2093 год. Приключения 12 летней московской школьницы из будущего Алисы Селезневой, героини фантастических повестей Кира Булычева, которые легли в основу популярного советского многосерийного фильма Гостья из будущего, теперь продолжатся в анимационном сериале. При этом часть действий будет происходить в строящемся в Подмосковье иннограде Сколково.

    Продолжительность: ~00: 26: 00 серия
    Качество видео: WEBRip
    Видео: AVC/H.264, 960х544, ~1234 Kbps
    Аудио: AAC, 2 ch, 160 Kbps, Русский
    Код:

    General
    Complete name : Алиса знает что делать! (2012-2015)1. Тайна последнего истинокса.mp4
    Format : MPEG-4
    Format profile : Base Media
    Codec ID : isom
    File size : 261 MiB
    Duration : 26mn 0s
    Overall bit rate mode : Variable
    Overall bit rate : 1 402 Kbps
    Movie name : 01. Тайна последнего истинокса [NoNaMe-Club/rip by alien.09]
    ContentType : Short Film
    Encoded date : UTC 2015-12-10 00:04:05
    Tagged date : UTC 2015-12-10 00:04:12
    Video
    ID : 1
    Format : AVC
    Format/Info : Advanced Video Codec
    Format profile :Main@L4.1
    Format settings, CABAC : Yes
    Format settings, ReFrames : 3 frames
    Codec ID : avc1
    Codec ID/Info : Advanced Video Coding
    Duration : 26mn 0s
    Bit rate : 1 234 Kbps
    Maximum bit rate : 4 670 Kbps
    Width : 960 pixels
    Height : 544 pixels
    Display aspect ratio : 16:9
    Frame rate mode : Constant
    Frame rate : 25.000 fps
    Color space : YUV
    Chroma subsampling : 4:2:0
    Bit depth : 8 bits
    Scan type : Progressive
    Bits/(Pixel*Frame) : 0.095
    Stream size : 229 MiB (88%)
    Writing library : x264 core 116 r2019M 9cc407d
    Encoding settings : cabac=1/ref=3/deblock=1:-1:-1/analyse=0x1:0x131/me=hex/subme=7/psy=1/psy_rd=1.00:0.15/mixed_ref=1/me_range=16/chroma_me=1/trellis=1/8x8dct=0/cqm=0/deadzone=21, 11/fast_pskip=1/chroma_qp_offset=-3/threads=12/sliced_threads=0/nr=0/decimate=1/interlaced=0/bluray_compat=0/constrained_intra=0/bframes=3/b_pyramid=0/b_adapt=2/b_bias=0/direct=3/weightb=1/open_gop=0/weightp=0/keyint=250/keyint_min=25/scenecut=40/intra_refresh=0/rc_lookahead=40/rc=2pass/mbtree=1/bitrate=1234/ratetol=1.0/qcomp=0.60/qpmin=10/qpmax=51/qpstep=4/cplxblur=20.0/qblur=0.5/vbv_maxrate=5000/vbv_bufsize=1835/nal_hrd=none/ip_ratio=1.40/aq=1:1.00
    Language : Russian
    Encoded date : UTC 2015-12-10 00:04:05
    Tagged date : UTC 2015-12-10 00:04:08
    Audio
    ID : 2
    Format : AAC
    Format/Info : Advanced Audio Codec
    Format profile : LC
    Codec ID : 40
    Duration : 26mn 0s
    Bit rate mode : Variable
    Bit rate : 160 Kbps
    Maximum bit rate : 237 Kbps
    Channel count : 2 channels
    Channel positions : Front: L R
    Sampling rate : 48.0 KHz
    Compression mode : Lossy
    Stream size : 29.8 MiB (11%)
    Language : Russian
    Encoded date : UTC 2015-12-10 00:04:07
    Tagged date : UTC 2015-12-10 00:04:08


    Скриншоты для ознакомления




    Алиса знает, что делать! (2012-2015) WEBRip [H.264] (Серии 1-22 из 24 + бонусы) [MP4|960х544]
    загрузка...
    Рейтинг →
     (голосов: 1, оценка 5/5, голосовать можно 1 раз )

    Другие торренты по теме:

  • Алиса знает, что делать! (2013-2014) WEB-DLRip (Серии 1-11 из 24) [Обновляемая]
  • Алиса знает, что делать! (2013-2014) WEB-DL [720p] (Серии 1-11 из 24) [Обновляемая] скачать через торрент бесплатно
  • Алиса знает, что делать! (2012-2015) WEBRip [H.264] (Серии 1-24 из 24 + бонусы) [MP4|960х544]


    • Комментарии (0):

      Информация

      Информация

        Посетители, находящиеся в группе Гости, не могут оставлять комментарии в данной новости.

        ↓ Меню




        ↓ Опрос

        Вы добавили сайт в закладки?
        Да
        Нет


        Top 10 за месяц (КПК и мобильные)