.
Авторизация | Регистрация
Хочешь лучшие торренты? Добавь свой email!
Добавить

Торрент скачать бесплатно

» » Семнадцать мгновений весны (1973) DVDRip [H.264] (Серии 1-12 из 12) [MP4|704x384] (цветной) скачать через торрент бесплатно




    Семнадцать мгновений весны (1973) DVDRip [H.264] (Серии 1-12 из 12) [MP4|704x384] (цветной) скачать через торрент бесплатно

    Опубликовал: Админ | Дата: 27-11-2015, 04:02 | Просмотров: 170

    Производство: СССР
    Жанр: Военный, Драма, Приключения
    Режиссер: Татьяна Лиознова
    Актеры: Вячеслав Тихонов, Леонид Броневой, Евгений Евстигнеев, Олег Табаков, Ростислав Плятт, Екатерина Градова, Ольга Сошникова, Отто Мелиес, Николай Прокопович, Николай Гриценко, Юрий Визбор, Вячеслав Шалевич, Леонид Куравлев, Валентин Гафт, Инна Ульянова, Светлана Светличная, Валентин Белоногов, Лев Дуров, Константин Желдин, Андро Кобаладзе, Василий Лановой, Элеонора Шашкова, Алексей Эйбоженко

    Описание

    Классика советского кинематографа. Первый отечественный сериал, снятый по мотивам произведения мастера политического детектива Юлиана Семенова. В какое бы время не показывали этот фильм, его смотрела и смотрит вся страна. Время и место действия остросюжетной драмы - Германия, канун Победы в Великой отечественной войне. Советский разведчик полковник Исаев, он же - штандартенфюрер СС Штирлиц, исполняет последние задания Центра, диктуемые ходом военных действий и политическими интригами верхов противоборствующих сторон. Знаменитый образ главного героя фильма Штирлица-Исаева (Вячеслав Тихонов) построен по принципу перевоплощения, двойной игры, своеобразного маскарада, несмотря на серьезность и даже документированную достоверность событий в Германии весной 1945 года. Культовый статус этого произведения в целом и его главного героя в частности возник в немалой степени благодаря двойственности существования разведчика в ставке врага, когда он вынужден притворяться вовсе не тем, кем является на самом деле.

    Продолжительность: ~00: 51: 00 серия
    Качество видео: DVDRip
    Видео: AVC/H.264, 704x384, ~1500 Kbps
    Аудио: AAC, 2 ch, 128 Kbps, VBR
    Код:

    General
    Complete name : G:Download_G17_mgnovenij_vesny_langust17_mgnovenij_vesny_01.mp4
    Format : MPEG-4
    Format profile : Base Media/Version 2
    Codec ID : mp42
    File size : 597 MiB
    Duration : 51mn 15s
    Overall bit rate mode : Variable
    Overall bit rate : 1 628 Kbps
    Encoded date : UTC 2015-11-25 05:14:56
    Tagged date : UTC 2015-11-25 05:14:56
    Video
    ID : 1
    Format : AVC
    Format/Info : Advanced Video Codec
    Format profile : High@L3
    Format settings, CABAC : Yes
    Format settings, ReFrames : 3 frames
    Format settings, GOP : M=2, N=33
    Codec ID : avc1
    Codec ID/Info : Advanced Video Coding
    Duration : 51mn 15s
    Bit rate : 1 496 Kbps
    Width : 704 pixels
    Height : 384 pixels
    Display aspect ratio : 1.85:1
    Frame rate mode : Constant
    Frame rate : 25.000 fps
    Standard : PAL
    Color space : YUV
    Chroma subsampling : 4:2:0
    Bit depth : 8 bits
    Scan type : Progressive
    Bits/(Pixel*Frame) : 0.221
    Stream size : 548 MiB (92%)
    Language : English
    Encoded date : UTC 2015-11-25 05:14:56
    Tagged date : UTC 2015-11-25 05:14:56
    Color range : Limited
    Color primaries : BT.601 PAL
    Transfer characteristics : BT.470 System B, BT.470 System G
    Matrix coefficients : BT.601
    Audio
    ID : 2
    Format : AAC
    Format/Info : Advanced Audio Codec
    Format profile : LC
    Codec ID : 40
    Duration : 51mn 15s
    Bit rate mode : Variable
    Bit rate : 128 Kbps
    Maximum bit rate : 154 Kbps
    Channel(s) : 2 channels
    Channel positions : Front: L R
    Sampling rate : 48.0 KHz
    Compression mode : Lossy
    Stream size : 47.0 MiB (8%)
    Language : English
    Encoded date : UTC 2015-11-25 05:14:56
    Tagged date : UTC 2015-11-25 05:14:56


    Скриншоты для ознакомления




    Семнадцать мгновений весны (1973) DVDRip [H.264] (Серии 1-12 из 12) [MP4|704x384] (цветной)
    загрузка...
    Рейтинг →
     (голосов: 1, оценка 3/5, голосовать можно 1 раз )

    Другие торренты по теме:

  • Семнадцать мгновений весны (1973) DVDRip [12 серий из 12] [Цветной]
  • Семнадцать мгновений весны (1973) DVDRip [12 серий из 12] [Цветной]
  • Семнадцать мгновений весны (1973) DVDRip (12 серий из 12) [Цветной] скачать через торрент бесплатно
  • Александр Шапиро - Семнадцать мгновений любви (2013) [FLAC|image +.cue]<Шансон> скачать через торрент бесплатно
  • Семнадцать мгновений весны (1973) DVDRip [H.264] [12 серий из 12 + Док. фильм]
  • Семнадцать мгновений весны (1973) SATRip [H.264] [12 серий из 12] [Цветной]


    • Комментарии (0):

      Информация

      Информация

        Посетители, находящиеся в группе Гости, не могут оставлять комментарии в данной новости.

        ↓ Меню




        ↓ Опрос

        Вы добавили сайт в закладки?
        Да
        Нет


        Top 10 за месяц (КПК и мобильные)