.
Авторизация | Регистрация
Хочешь лучшие торренты? Добавь свой email!
Добавить

Торрент скачать бесплатно

» » Инфинити (2008-2015) WEB-DLRip [MP4|1280x720] скачать через торрент бесплатно




    Инфинити (2008-2015) WEB-DLRip [MP4|1280x720] скачать через торрент бесплатно

    Опубликовал: Админ | Дата: 22-11-2015, 04:26 | Просмотров: 320

    Жанр: Музыка
    Состав группы: Татьяна Бондаренко и Алексей Кутузов

    Описание
    Клипы группы Инфинити
    Продолжительность: ~ 00: 04: 00 клип
    Качество видео: WEB-DLRip
    Видео: MPEG-4 Visual, 1280х720, ~2021 Кбит/сек
    Аудио: AAC, 2 канала, 126 Кбит/сек
    Код:

    Полное имя : Z:mediauser32FE9252FE920E6BFFOutputИнфинити NEWИнфинити - Крылья.mp4
    Формат : MPEG-4
    Профиль формата : Base Media/Version 2
    Идентификатор кодека : mp42
    Размер файла : 55, 1 Мбайт
    Продолжительность : 3 м. 35 с.
    Режим общего битрейта : Переменный
    Общий поток : 2148 Кбит/сек
    Дата кодирования : UTC 2015-11-20 08:51:34
    Дата пометки : UTC 2015-11-20 08:51:34
    Программа кодирования : FormatFactory :www.pcfreetime.com
    Видео
    Идентификатор : 201
    Формат : MPEG-4 Visual
    Профиль формата : Simple@L1
    Параметр BVOP формата : Нет
    Параметр QPel формата : Нет
    Параметр GMC формата : Без точки перехода
    Параметр матрицы формата : Default (H.263)
    Идентификатор кодека : 20
    Продолжительность : 3 м. Самое интересное в это истории, что об этом Папа Римский ничего не знал. 35 с.
    Вид битрейта : Переменный
    Битрейт : 2021 Кбит/сек
    Максимальный битрейт : 4328 Кбит/сек
    Ширина : 1280 пикселей
    Высота : 720 пикселей
    Соотношение сторон : 16:9
    Режим частоты кадров : Постоянный
    Частота кадров : 30, 000 кадров/сек
    Цветовое пространство : YUV
    Субдискретизация насыщенности : 4:2:0
    Битовая глубина : 8 бит
    Тип развёртки : Прогрессивная
    Метод сжатия : С потерями
    Бит/(Пиксели*Кадры) : 0.073
    Размер потока : 51, 8 Мбайт (94%)
    Библиотека кодирования : Lavc53.8.0
    Дата кодирования : UTC 2015-11-20 08:51:34
    Дата пометки : UTC 2015-11-20 08:51:36
    Аудио
    Идентификатор : 101
    Формат : AAC
    Формат/Информация : Advanced Audio Codec
    Профиль формата : LC
    Идентификатор кодека : 40
    Продолжительность : 3 м. 35 с.
    Вид битрейта : Переменный
    Битрейт : 126 Кбит/сек
    Максимальный битрейт : 240 Кбит/сек
    Каналы : 2 канала
    Расположение каналов : Front: L R
    Частота : 44, 1 КГц
    Метод сжатия : С потерями
    Размер потока : 3, 22 Мбайт (6%)
    Дата кодирования : UTC 2015-11-20 08:51:35
    Дата пометки : UTC 2015-11-20 08:51:36


    Скриншоты для ознакомления




    Инфинити (2008-2015) WEB-DLRip [MP4|1280x720]
    загрузка...
    Рейтинг →
     (голосов: 1, оценка 5/5, голосовать можно 1 раз )

    Другие торренты по теме:

  • Инфинити - Крылья (2014) HDTVRip [1080p]
  • Инфинити - Сборник видеоклипов (2008-2015) WEBRip [H.264 / 720p-LQ]
  • Инфинити - Увлечение (2017) [MP3|320 Kbps] <Pop>


    • Комментарии (0):

      Информация

      Информация

        Посетители, находящиеся в группе Гости, не могут оставлять комментарии в данной новости.

        ↓ Меню




        ↓ Опрос

        Вы добавили сайт в закладки?
        Да
        Нет


        Top 10 за месяц (КПК и мобильные)