.
Авторизация | Регистрация
Хочешь лучшие торренты? Добавь свой email!
Добавить

Торрент скачать бесплатно

» » Флэш / The Flash (2015) WEB-DLRip [H.264] (Сезон 2, серии 1 из 20) LostFilm [MP4|1280x718] скачать через торрент бесплатно




    Флэш / The Flash (2015) WEB-DLRip [H.264] (Сезон 2, серии 1 из 20) LostFilm [MP4|1280x718] скачать через торрент бесплатно

    Опубликовал: Админ | Дата: 10-10-2015, 04:01 | Просмотров: 174

    Производство: США
    Жанр: фантастика, фэнтези, боевик, драма, приключения
    Режиссер: Дэвид Наттер
    Актеры: Грант Гастин, Кэндис Паттон, Рик Коснетт, Даниэль Панабэйкер, Карлос Вальдес, Томас Кэвэна, Джесси Л. Мартин, Джон Уэсли Шипп, Стивен Амелл, Ёсиэ Бэнкрофт и др.

    Описание

    Сериал основан на супергерое DC Comics по имени Флэш (Барри Аллен), борце с преступностью в костюме, который был создан Робертом Кнайгером, Джоном Брумом и Кармином Инфантино. Является спин-оффом сериала Стрела и происходит в той же вселенной.
    Из-за несчастного случая судмедэксперт Барри Аллен приобретает способность передвигаться с невероятной скоростью. Этот случай делает из него супергероя, которым он всегда мечтал стать. Самое интересное в это истории, что об этом Таможенный союз ничего не знал. Защищая город, как ангел-хранитель, делая невозможное, спасая жизни со скоростью вспышки, по подсказке Оливера Куина (Стрела), он берёт себе и соответствующее имя - Флэш...

    Продолжительность: ~ 00: 42: 00 серия
    Качество видео: WEB-DLRip 720p
    Перевод: Многоголосый закадровый, профессиональный -LostFilm
    Видео: AVC/H.264 (High@L3.1 ), 1280x718 (16: 9), ~4000 Кбит/сек
    Аудио: AAC, 2 канала, 250 Кбит/сек - русский (многоголосый закадровый)
    Код:

    Полное имя : F:The_Flash_s2_WEB-DL720p_x264_LostFilm_[NNM-CLUB]The.Flash.S02E01.720p.WEB.rus.LostFilm.TV.mp4
    Формат : MPEG-4
    Профиль формата : Base Media
    Идентификатор кодека : isom
    Размер файла : 1, 27 Гбайт
    Продолжительность : 42 м.
    Режим общего битрейта : Переменный
    Общий поток : 4277 Кбит/сек
    Коллекция : Флэш
    Сезон : 2
    Альбом : Флэш, Сезон 1
    Альбом/Исполнитель : Флэш
    Часть : 1
    Часть/Положение : 2
    Трек : Тот, кто спас Централ-сити
    Трек/Положение : 1
    Исполнитель : Флэш
    Жанр : Sci-Fi Fantasy
    Тип содержимого : TV Show
    Дата записи : 2015
    Дата кодирования : UTC 2015-10-07 19:14:19
    Дата пометки : UTC 2015-10-07 19:14:19
    Программа кодирования : Yamb 2.1.0.0 [http://yamb.unite-video.com]/LostCoder
    Правообладатель : LostFilm.TV(c)
    Обложка : Yes
    Примечание : Во время взрыва ускорителя частиц в научной лаборатории в Брри Аллена ударяет молния и он впадает в кому. Очнувшись через 9 месяцев, он понимает, что стал обладателем уникальной способности бегать быстрее скорости света.
    Part_ID : 201
    Видео
    Идентификатор : 1
    Формат : AVC
    Формат/Информация : Advanced Video Codec
    Профиль формата :High@L3.1
    Параметр CABAC формата : Нет
    Параметр ReFrames формата : 2 кадра
    Идентификатор кодека : avc1
    Идентификатор кодека/Информация : Advanced Video Coding
    Продолжительность : 42 м.
    Битрейт : 4000 Кбит/сек
    Максимальный битрейт : 13, 3 Мбит/сек
    Ширина : 1280 пикселей
    Высота : 718 пикселей
    Соотношение сторон : 16:9
    Режим частоты кадров : Переменный
    Частота кадров : 23, 976 кадра/сек
    Минимальная частота кадров : 23, 974 кадра/сек
    Максимальная частота кадров : 23, 981 кадра/сек
    Цветовое пространство : YUV
    Субдискретизация насыщенности : 4:2:0
    Битовая глубина : 8 бит
    Тип развёртки : Прогрессивная
    Бит/(Пиксели*Кадры) : 0.182
    Размер потока : 1, 20 Гбайт (94%)
    Библиотека кодирования : x264 core 112 r1834 a51816a
    Настройки программы : cabac=0/ref=3/deblock=1:0:0/analyse=0x1:0x111/me=hex/subme=7/psy=1/psy_rd=1.00:0.00/mixed_ref=1/me_range=16/chroma_me=1/trellis=1/8x8dct=0/cqm=0/deadzone=21, 11/fast_pskip=1/chroma_qp_offset=-2/threads=12/sliced_threads=0/nr=0/decimate=1/interlaced=0/constrained_intra=0/bframes=3/b_pyramid=2/b_adapt=1/b_bias=0/direct=1/weightb=1/open_gop=0/weightp=2/keyint=250/keyint_min=25/scenecut=40/intra_refresh=0/rc_lookahead=40/rc=abr/mbtree=1/bitrate=4000/ratetol=1.0/qcomp=0.60/qpmin=0/qpmax=51/qpstep=4/vbv_maxrate=5000/vbv_bufsize=2000/ip_ratio=1.40/aq=1:1.00/nal_hrd=none
    Язык : English
    Дата пометки : UTC 2015-10-07 19:14:47
    Основные цвета : BT.709
    Характеристики трансфера : BT.709
    Коэффициенты матрицы : BT.709
    Аудио
    Идентификатор : 2
    Формат : AAC
    Формат/Информация : Advanced Audio Codec
    Профиль формата : LC
    Идентификатор кодека : 40
    Продолжительность : 42 м.
    Вид битрейта : Переменный
    Битрейт : 249 Кбит/сек
    Максимальный битрейт : 324 Кбит/сек
    Каналы : 2 канала
    Расположение каналов : Front: L R
    Частота : 48, 0 КГц
    Метод сжатия : С потерями
    Размер потока : 75, 7 Мбайт (6%)
    Дата кодирования : UTC 2015-10-07 19:14:45
    Дата пометки : UTC 2015-10-07 19:14:47


    Скриншоты для ознакомления




    Флэш/The Flash (2015) WEB-DLRip [H.264] (Сезон 2, серии 1 из 20) LostFilm [MP4|1280x718]
    загрузка...
    Рейтинг →
     (голосов: 1, оценка 4/5, голосовать можно 1 раз )

    Другие торренты по теме:

  • Флэш / The Flash (2014) WEB-DL [H.264 / 720p-LQ] (Сезон 1, серия 1 из 13) BaibaKo (обновляемая)
  • Флэш / The Flash (2014) WEB-DLRip (сезон 1, серии 1 из 13) BaibaKo (обновляемая)
  • Флэш (The Flash) / (Сезон 1, серия 1 из 13) BaibaKo (2014) [MP4|720x400] <WEB-DLRip H.264>
  • Флэш (The Flash) / (Сезон 1, серия 1 из 13) LostFilm (2014) [MP4|1280x718] <WEB-DL H.264>
  • Флэш / The Flash (2014) WEB-DLRip (сезон 1, серии 1-2 из 13) LostFilm (обновляемая) скачать через торрент бесплатно
  • Флэш / The Flash (2014) WEB-DLRip (сезон 1, серии 1-2 из 13) NewStudio (обновляемая) скачать через торрент бесплатно
  • Флэш / The Flash (2014) WEB-DL [H.264 / 720p-LQ] (сезон 1, серии 1-8 из 23) LostFilm (обновляемая)
  • Флэш / The Flash (2014) WEB-DL [H.264 / 1080p-LQ] (сезон 1, серии 1-8 из 23) LostFilm (обновляемая)


    • Комментарии (0):

      Информация

      Информация

        Посетители, находящиеся в группе Гости, не могут оставлять комментарии в данной новости.

        ↓ Меню




        ↓ Опрос

        Вы добавили сайт в закладки?
        Да
        Нет


        Top 10 за месяц (КПК и мобильные)