.
Авторизация | Регистрация
Хочешь лучшие торренты? Добавь свой email!
Добавить

Торрент скачать бесплатно

» » Бахубали / Baahubali: The Beginning (2015) HDRip [H.264] [MP4|960х416] скачать через торрент бесплатно




    Бахубали / Baahubali: The Beginning (2015) HDRip [H.264] [MP4|960х416] скачать через торрент бесплатно

    Опубликовал: Админ | Дата: 6-10-2015, 04:03 | Просмотров: 201

    Производство: Индия
    Жанр: Боевик, Военный, Приключения
    Режиссер: С.С. Раджамули
    Актеры: Прабхас, Рана Даггубати, Анушка Шетти, Таманна Бхатия, Рамья Кришна, Нассер, Судип, Сатьярадж, Таникелла Бхарани

    Описание

    Воинственный и эпический герой по имени Бахубали был одним из сыновей Таксашильского царя Ришабхадевы. Много раз могучий Бахубали выходил на битву со своим двоюродным братом и отвоевал все его земли. После очередной победы над ним Бахубали решил отказаться от трона и ушел в монахи. Что произошло дальше, воспето в многочисленных легендах и эпосах.

    Дата мировой премьеры: 9 июля 2015 г.
    Продолжительность: 02: 39: 32
    Качество видео: HDRip
    Перевод: Двуголосый закадровый (DeadSno Den904)
    Видео: AVC/H.264, 960х416 pixels, ~2345 Kbps
    Аудио: AAC, 2 ch, 160 Kbps
    Код:

    General
    Complete name : Бахубали (2015).mp4
    Format : MPEG-4
    Format profile : Base Media
    Codec ID : isom
    File size : 2.80 GiB
    Duration : 2h 39mn
    Overall bit rate mode : Variable
    Overall bit rate : 2 509 Kbps
    Movie name : Baahubali: The Beginning (2015 [NoNaMe-Club. rip by alien.09])
    ContentType : Short Film
    Encoded date : UTC 2015-10-05 14:39:50
    Tagged date : UTC 2015-10-05 14:42:11
    Video
    ID : 1
    Format : AVC
    Format/Info : Advanced Video Codec
    Format profile :Main@L4.1
    Format settings, CABAC : Yes
    Format settings, ReFrames : 3 frames
    Codec ID : avc1
    Codec ID/Info : Advanced Video Coding
    Duration : 2h 39mn
    Bit rate : 2 345 Kbps
    Maximum bit rate : 6 426 Kbps
    Width : 960 pixels
    Height : 416 pixels
    Display aspect ratio : 2.35:1
    Frame rate mode : Constant
    Frame rate : 23.976 fps
    Color space : YUV
    Chroma subsampling : 4:2:0
    Bit depth : 8 bits
    Scan type : Progressive
    Bits/(Pixel*Frame) : 0.245
    Stream size : 2.61 GiB (93%)
    Writing library : x264 core 125 r2200M 999b753
    Encoding settings : cabac=1/ref=3/deblock=1:-1:-1/analyse=0x1:0x131/me=hex/subme=7/psy=1/psy_rd=1.00:0.15/mixed_ref=1/me_range=16/chroma_me=1/trellis=1/8x8dct=0/cqm=0/deadzone=21, 11/fast_pskip=1/chroma_qp_offset=-3/threads=4/lookahead_threads=1/sliced_threads=0/nr=0/decimate=1/interlaced=0/bluray_compat=0/constrained_intra=0/bframes=3/b_pyramid=0/b_adapt=2/b_bias=0/direct=3/weightb=1/open_gop=0/weightp=0/keyint=230/keyint_min=23/scenecut=40/intra_refresh=0/rc_lookahead=40/rc=2pass/mbtree=1/bitrate=2345/ratetol=1.0/qcomp=0.60/qpmin=10/qpmax=51/qpstep=4/cplxblur=20.0/qblur=0.5/vbv_maxrate=5000/vbv_bufsize=1835/nal_hrd=none/ip_ratio=1.40/aq=1:1.00
    Language : English
    Encoded date : UTC 2015-10-05 14:39:50
    Tagged date : UTC 2015-10-05 14:40:22
    Audio
    ID : 2
    Format : AAC
    Format/Info : Advanced Audio Codec
    Format profile : LC
    Codec ID : 40
    Duration : 2h 39mn
    Bit rate mode : Variable
    Bit rate : 160 Kbps
    Maximum bit rate : 208 Kbps
    Channel count : 2 channels
    Channel positions : Front: L R
    Sampling rate : 48.0 KHz
    Compression mode : Lossy
    Stream size : 183 MiB (6%)
    Language : Russian
    Encoded date : UTC 2015-10-05 14:40:18
    Tagged date : UTC 2015-10-05 14:40:22


    Скриншоты для ознакомления




    Бахубали/Baahubali: The Beginning (2015) HDRip [H.264] [MP4|960х416]
    загрузка...
    Рейтинг →
     (голосов: 1, оценка 4/5, голосовать можно 1 раз )

    Другие торренты по теме:

  • Бахубали / Baahubali (2015-2017) BDRip [H.264 / 1080p] [Дилогия]
  • Бахубали: Начало / Baahubali: The Beginning (2015) BDRip скачать через торрент бесплатно
  • Бахубали: Начало / Baahubali: The Beginning (2015) BDRip [H.264 / 1080p] скачать через торрент бесплатно
  • Бахубали: Начало / Baahubali: The Beginning (2015) BDRip [H.264 / 1080p]
  • Бахубали - Начало / Baahubali - The Beginning (2015) Язык песен - Хинди [MP3|320 Kbps] <OST, Soundtrack>
  • Бахубали - Заключение / Baahubali - The Conclusion (2017) Язык песен - Хинди [MP3|320 Kbps] <OST, Soundtrack>


    • Комментарии (0):

      Информация

      Информация

        Посетители, находящиеся в группе Гости, не могут оставлять комментарии в данной новости.

        ↓ Меню




        ↓ Опрос

        Вы добавили сайт в закладки?
        Да
        Нет


        Top 10 за месяц (КПК и мобильные)