.
Авторизация | Регистрация
Хочешь лучшие торренты? Добавь свой email!
Добавить

Торрент скачать бесплатно

» » Штамм / The Strain (2015) WEB-DLRip [H.264] (Сезон 2, серии 1-9 из 13) LostFilm [MP4|1280x720] скачать через торрент бесплатно




    Штамм / The Strain (2015) WEB-DLRip [H.264] (Сезон 2, серии 1-9 из 13) LostFilm [MP4|1280x720] скачать через торрент бесплатно

    Опубликовал: Админ | Дата: 9-09-2015, 04:01 | Просмотров: 516

    Производство: Mirada (США)
    Жанр: Ужасы, фантастика, драма
    Режиссер: Гильермо дель Торо, Дэвид Семел, Кит Гордон
    Актеры: Дэвид Брэдли, Энн Бетанкорт, Николай Вич, Педро Мигель Арсе, Дрю Нельсон, Джо Веркилло, Джим Уотсон, Алекс Пэкстон, Джонатан Поттс, Рихард Заммель и др.

    Описание

    В аэропорту Нью-Йорка совершает посадку трансатлантический лайнер с выключенным светом и закрытыми дверями. Эпидемиолог доктор Эфраим Гудвезер и его команда на борту находят около двухсот трупов и четырех выживших. Тела умерших начинают исчезать из моргов. Они оживают, только это уже не люди, а исчадия ада...
    Штамм - американский хоррор-сериал, созданный по одноименному роману Гильермо Дель Торо и Чака Хогана. Канал FX уже принял решение, что сериал будет иметь концовку и состоять из трех, максимум пяти сезонов (39-65 серий).

    Продолжительность: ~ 00: 43: 00 серия
    Качество видео: WEB-DLRip 720p
    Перевод: Многоголосый закадровый, профессиональный -LostFilm
    Озвучка: Студия LostFilm
    Видео: AVC/H.264, 1280x720 (16: 9), ~4000 Кбит/сек
    Аудио: AAC, 2 канала, 226 Кбит/сек - русский (многоголосый закадровый, LostFilm)
    Код:

    Полное имя : D:The_Strain_s2_WEB-DL720p_x264_LostFilm_[NNM-CLUB]The.Strain.S02E01.720p.WEB.rus.LostFilm.TV.mp4
    Формат : MPEG-4
    Профиль формата : Base Media
    Идентификатор кодека : isom
    Размер файла : 1, 71 Гбайт
    Продолжительность : 58 м.
    Режим общего битрейта : Переменный
    Общий поток : 4188 Кбит/сек
    Коллекция : Штамм
    Сезон : 2
    Альбом : Штамм, Сезон 2
    Альбом/Исполнитель : Штамм
    Часть : 1
    Часть/Положение : 2
    Трек : Бруклин. Нью-Йорк
    Трек/Положение : 1
    Исполнитель : Штамм
    Жанр : Sci-Fi Fantasy
    Тип содержимого : TV Show
    Дата записи : 2015
    Дата кодирования : UTC 2015-07-13 17:46:48
    Дата пометки : UTC 2015-07-13 17:46:48
    Программа кодирования : Yamb 2.1.0.0 [http://yamb.unite-video.com]/LostCoder
    Правообладатель : LostFilm.TV (c)
    Обложка : Yes
    Примечание : В аэропорту Нью-Йорка экстренно приземляется самолет, полный мертвецов. Божий одуванчик, сказал кто то из толпы, к чему не понятно. Для выяснения обстоятельств их смерти на борт направляются ученые. В ходе исследований становится ясно, что пассажиры заражены вирусом вампиризма.
    Part_ID : 201
    Видео
    Идентификатор : 1
    Формат : AVC
    Формат/Информация : Advanced Video Codec
    Профиль формата :High@L4.1
    Параметр CABAC формата : Нет
    Параметр ReFrames формата : 4 кадра
    Идентификатор кодека : avc1
    Идентификатор кодека/Информация : Advanced Video Coding
    Продолжительность : 58 м.
    Битрейт : 4000 Кбит/сек
    Максимальный битрейт : 5942 Кбит/сек
    Ширина : 1280 пикселей
    Высота : 720 пикселей
    Соотношение сторон : 16:9
    Режим частоты кадров : Постоянный
    Частота кадров : 23, 976 кадра/сек
    Цветовое пространство : YUV
    Субдискретизация насыщенности : 4:2:0
    Битовая глубина : 8 бит
    Тип развёртки : Прогрессивная
    Бит/(Пиксели*Кадры) : 0.181
    Размер потока : 1, 61 Гбайт (95%)
    Заголовок : Imported with GPAC 0.4.6-DEV (internal rev. 5)
    Библиотека кодирования : x264 core 112 r1834 a51816a
    Настройки программы : cabac=0/ref=3/deblock=1:0:0/analyse=0x3:0x113/me=hex/subme=7/psy=1/psy_rd=1.00:0.00/mixed_ref=1/me_range=16/chroma_me=1/trellis=1/8x8dct=1/cqm=0/deadzone=21, 11/fast_pskip=1/chroma_qp_offset=-2/threads=12/sliced_threads=0/nr=0/decimate=1/interlaced=0/constrained_intra=0/bframes=3/b_pyramid=2/b_adapt=1/b_bias=0/direct=1/weightb=1/open_gop=0/weightp=2/keyint=250/keyint_min=25/scenecut=40/intra_refresh=0/rc_lookahead=40/rc=abr/mbtree=1/bitrate=4000/ratetol=1.0/qcomp=0.60/qpmin=0/qpmax=51/qpstep=4/vbv_maxrate=5000/vbv_bufsize=2000/ip_ratio=1.40/aq=1:1.00/nal_hrd=none
    Дата кодирования : UTC 2015-07-13 16:11:18
    Дата пометки : UTC 2015-07-13 17:47:37
    Аудио
    Идентификатор : 2
    Формат : AAC
    Формат/Информация : Advanced Audio Codec
    Профиль формата : LC
    Идентификатор кодека : 40
    Продолжительность : 58 м.
    Вид битрейта : Переменный
    Битрейт : 226 Кбит/сек
    Максимальный битрейт : 327 Кбит/сек
    Каналы : 2 канала
    Расположение каналов : Front: L R
    Частота : 48, 0 КГц
    Метод сжатия : С потерями
    Размер потока : 94, 3 Мбайт (5%)
    Дата кодирования : UTC 2015-07-13 17:47:35
    Дата пометки : UTC 2015-07-13 17:47:37


    Скриншоты для ознакомления




    Штамм/The Strain (2015) WEB-DLRip [H.264] (Сезон 2, серии 1-9 из 13) LostFilm [MP4|1280x720]
    загрузка...
    Рейтинг →
     (голосов: 1, оценка 4/5, голосовать можно 1 раз )

    Другие торренты по теме:

  • Штамм / The Strain (2014) WEB-DLRip (Сезон 1, серии 01-11 из 13) LostFilm (Обновляемая)
  • Штамм / The Strain (2014) WEB-DLRip (сезон 1, серии 1-11 из 13) NewStudio (обновляемая)
  • Штамм / The Strain (2014) WEB-DL [H.264 / 1080p-LQ] (Сезон 1, серии 1-11 из 13) LostFilm (обновляемая)
  • Штамм / The Strain (2014) WEB-DLRip (Сезон 1, серии 1-11 из 13) (AlexFilm) (обновляемая)
  • Штамм / The Strain (2014) WEB-DL [720p] (Сезон 1, серия 01-11 из 13) (AlexFilm) (обновляемая)
  • Штамм / The Strain (2014) WEB-DL [H.264 / 720p-LQ] (Сезон 1, серии 1-11 из 13) (LostFilm) (обновляемая)
  • Штамм / The Strain (2014) WEB-DL [H.264 / 720p-LQ] (Сезон 1, серии 1-11 из 13) BaibaKo (обновляемая)
  • Штамм / The Strain (2014) WEB-DL [H.264 / 1080p-LQ] (Сезон 1, серии 1-11 из 13) BaibaKo (обновляемая)


    • Комментарии (0):

      Информация

      Информация

        Посетители, находящиеся в группе Гости, не могут оставлять комментарии в данной новости.

        ↓ Меню




        ↓ Опрос

        Вы добавили сайт в закладки?
        Да
        Нет


        Top 10 за месяц (КПК и мобильные)