.
Авторизация | Регистрация
Хочешь лучшие торренты? Добавь свой email!
Добавить

Торрент скачать бесплатно

» » Континуум / Continuum (2015) WEB-DLRip [H.264] (Сезон 4, серия 1 из ) LostFilm [MP4|1280x718] скачать через торрент бесплатно




    Континуум / Continuum (2015) WEB-DLRip [H.264] (Сезон 4, серия 1 из ) LostFilm [MP4|1280x718] скачать через торрент бесплатно

    Опубликовал: Админ | Дата: 1-09-2015, 04:01 | Просмотров: 126

    Производство: Канада
    Жанр: Фантастика, Триллер
    Режиссер: Пэт Уильямс, Дэвид Фрэйзи, Майк Рол
    Актеры: Рэйчел Николс, Виктор Уэбстер, Эрик Кнудсен, Стефен Лобо, Ричард Хэрмон, Брайан Маркинсон, Дженнифер Спенс, Джон Генри Рирдон, Роджер Р. Кросс, Лекса Дойг и др.

    Описание

    Когда в 2077 году группа террористов-фанатиков сбегает с казни, они переносятся в 2012 год, случайно захватив с собой стража Управления общественной безопасности Киру Кэмерон. Когда она понимает, что застряла в прошлом и не может вернуться к мужу и сыну, Кира направляет свою энергию на попытки устранить террористическую группу, пока они не повергли в хаос наше настоящее...

    Продолжительность: ~ 00: 45: 00 серия
    Качество видео: WEB-DLRip 720p
    Перевод: Многоголосый закадровый, профессиональный -LostFilm
    Озвучка: Студия LostFilm
    Видео: AVC/H.264, 1280x718 (16: 9), ~4000 Кбит/сек
    Аудио: AAC, 2 канала, 246 Кбит/сек - русский (многоголосый закадровый, LostFilm)
    Код:

    Полное имя : E:Continuum_s4_WEB-DL720p_x264_LostFilm_[NNM-CLUB]Continuum.S04E01.720p.WEB.rus.LostFilm.TV.mp4
    Формат : MPEG-4
    Профиль формата : Base Media
    Идентификатор кодека : isom
    Размер файла : 1, 33 Гбайт
    Продолжительность : 44 м.
    Режим общего битрейта : Переменный
    Общий поток : 4302 Кбит/сек
    Коллекция : Континуум
    Сезон : 4
    Альбом : Континуум, Сезон 4
    Альбом/Исполнитель : Континуум
    Часть : 1
    Часть/Положение : 4
    Трек : Потерянные часы
    Трек/Положение : 1
    Исполнитель : Континуум
    Жанр : Sci-Fi Fantasy
    Тип содержимого : TV Show
    Дата записи : 2015
    Дата кодирования : UTC 2015-08-29 17:05:48
    Дата пометки : UTC 2015-08-29 17:05:48
    Программа кодирования : Yamb 2.1.0.0 [http://yamb.unite-video.com]/LostCoder
    Правообладатель : LostFilm.TV (c)
    Обложка : Yes
    Примечание : Страж управления общественной безопасности Кира Кэмерон из 2077 года отправилась вместе со сбежавшими террористами-фанатиками в наше время и теперь ей придется найти способ их остановить. Помогать ей вызвался молодой компьютерный гений.
    Part_ID : 401
    Видео
    Идентификатор : 1
    Формат : AVC
    Формат/Информация : Advanced Video Codec
    Профиль формата :High@L3.1
    Параметр CABAC формата : Нет
    Параметр ReFrames формата : 2 кадра
    Идентификатор кодека : avc1
    Идентификатор кодека/Информация : Advanced Video Coding
    Продолжительность : 44 м.
    Битрейт : 4000 Кбит/сек
    Максимальный битрейт : 12, 2 Мбит/сек
    Ширина : 1280 пикселей
    Высота : 718 пикселей
    Соотношение сторон : 16:9
    Режим частоты кадров : Переменный
    Частота кадров : 23, 976 кадра/сек
    Минимальная частота кадров : 23, 974 кадра/сек
    Максимальная частота кадров : 23, 981 кадра/сек
    Цветовое пространство : YUV
    Субдискретизация насыщенности : 4:2:0
    Битовая глубина : 8 бит
    Тип развёртки : Прогрессивная
    Бит/(Пиксели*Кадры) : 0.182
    Размер потока : 1, 25 Гбайт (94%)
    Библиотека кодирования : x264 core 112 r1834 a51816a
    Настройки программы : cabac=0/ref=3/deblock=1:0:0/analyse=0x1:0x111/me=hex/subme=7/psy=1/psy_rd=1.00:0.00/mixed_ref=1/me_range=16/chroma_me=1/trellis=1/8x8dct=0/cqm=0/deadzone=21, 11/fast_pskip=1/chroma_qp_offset=-2/threads=12/sliced_threads=0/nr=0/decimate=1/interlaced=0/constrained_intra=0/bframes=3/b_pyramid=2/b_adapt=1/b_bias=0/direct=1/weightb=1/open_gop=0/weightp=2/keyint=250/keyint_min=25/scenecut=40/intra_refresh=0/rc_lookahead=40/rc=abr/mbtree=1/bitrate=4000/ratetol=1.0/qcomp=0.60/qpmin=0/qpmax=51/qpstep=4/vbv_maxrate=5000/vbv_bufsize=2000/ip_ratio=1.40/aq=1:1.00/nal_hrd=none
    Язык : English
    Дата пометки : UTC 2015-08-29 17:06:05
    Основные цвета : BT.709
    Характеристики трансфера : BT.709
    Коэффициенты матрицы : BT.709
    Аудио
    Идентификатор : 2
    Формат : AAC
    Формат/Информация : Advanced Audio Codec
    Профиль формата : LC
    Идентификатор кодека : 40
    Продолжительность : 44 м.
    Вид битрейта : Переменный
    Битрейт : 246 Кбит/сек
    Максимальный битрейт : 331 Кбит/сек
    Каналы : 2 канала
    Расположение каналов : Front: L R
    Частота : 48, 0 КГц
    Метод сжатия : С потерями
    Размер потока : 78, 1 Мбайт (6%)
    Дата кодирования : UTC 2015-08-29 17:06:04
    Дата пометки : UTC 2015-08-29 17:06:05


    Скриншоты для ознакомления




    Континуум/Continuum (2015) WEB-DLRip [H.264] (Сезон 4, серия 1 из ) LostFilm [MP4|1280x718]
    загрузка...
    Рейтинг →
     (голосов: 1, оценка 3/5, голосовать можно 1 раз )

    Другие торренты по теме:

  • Континуум / Continuum (2015) WEB-DLRip (сезон 4, серии 1 из ) NewStudio (обновляемая) скачать через торрент бесплатно
  • Континуум / Continuum (2015) WEB-DL [H.264 / 720p-LQ] (сезон 4, серия 1 из 6) (NewStudio) (обновляемая) скачать через торрент бесплатно
  • Континуум / Continuum (2015) WEB-DLRip (сезон 4, серии 1 из ) LostFilm (обновляемая) скачать через торрент бесплатно
  • Континуум / Continuum (2015) WEB-DL [H.264 / 1080p-LQ] (сезон 4, серии 1 из ) LostFilm (обновляемая) скачать через торрент бесплатно


    • Комментарии (0):

      Информация

      Информация

        Посетители, находящиеся в группе Гости, не могут оставлять комментарии в данной новости.

        ↓ Меню




        ↓ Опрос

        Вы добавили сайт в закладки?
        Да
        Нет


        Top 10 за месяц (КПК и мобильные)