.
Авторизация | Регистрация
Хочешь лучшие торренты? Добавь свой email!
Добавить

Торрент скачать бесплатно

» » Бог Богов Махадев / Devon Ke Dev Mahadev (2011) WEB-DLRip [H.264] (серии 640-705) [MP4|1280x720] [IN] скачать через торрент бесплатно




    Бог Богов Махадев / Devon Ke Dev Mahadev (2011) WEB-DLRip [H.264] (серии 640-705) [MP4|1280x720] [IN] скачать через торрент бесплатно

    Опубликовал: Админ | Дата: 14-04-2015, 04:00 | Просмотров: 564

    Производство: Индия
    Жанр: Драма, Семейный, Приключения
    Режиссер: Маниш Сингх (Manish Singh), Нихил Синха (Nikhil Sinha)
    Актеры: Махит Райна, Моуни Рой, Арун Бали, Прабхат Бхаттачария, Ахсаас Чанна, Шайлеш Датар, Панкадж Дхир и другие.

    Описание

    Основу сюжета составляют легенды о Шиве, взятые из сакральных текстов индуизма, в основном из Пуран.

    Продолжительность: 65x ~00: 23: 00 серия
    Качество видео: WEB-DLRip
    Перевод: Отсутствует
    Язык: Индийский
    Вид субтитров: Отдельным файлом
    Язык субтитров: Русский
    Видеокодек: AVC/H.264
    Битрейт видео: ~2000 Кбит/сек
    Размер кадра: 1280x720
    Аудиокодек: AAC, 2 канала
    Битрейт аудио: 62 Кбит/сек
    Код:

    Общее
    Полное имя : /Users/mmm/MailRuCloud/DKDM 640.mp4
    Формат : MPEG-4
    Профиль формата : Base Media
    Идентификатор кодека : isom
    Размер файла : 326 Мбайт
    Продолжительность : 22 м.
    Режим общего битрейта : Постоянный
    Общий поток : 2067 Кбит/сек
    Дата кодирования : UTC 1904-01-01 00:00:00
    Дата пометки : UTC 1904-01-01 00:00:00
    Программа кодирования : Lavf56.1.100
    Видео
    Идентификатор : 1
    Формат : AVC
    Формат/Информация : Advanced Video Codec
    Профиль формата :Main@L3.1
    Параметр CABAC формата : Да
    Параметр ReFrames формата : 1 кадр
    Параметр GOP формата : M=1, N=25
    Идентификатор кодека : avc1
    Идентификатор кодека/Информация : Advanced Video Coding
    Продолжительность : 22 м.
    Duration_FirstFrame : 4 мс.
    Вид битрейта : Постоянный
    Битрейт : 2000 Кбит/сек
    Ширина : 1280 пикселей
    Высота : 720 пикселей
    Соотношение сторон : 16:9
    Режим частоты кадров : Постоянный
    Частота кадров : 25, 000 кадров/сек
    Цветовое пространство : YUV
    Субдискретизация насыщенности : 4:2:0
    Битовая глубина : 8 бит
    Тип развёртки : Прогрессивная
    Бит/(Пиксели*Кадры) : 0.087
    Размер потока : 316 Мбайт (97%)
    Дата кодирования : UTC 1904-01-01 00:00:00
    Дата пометки : UTC 1904-01-01 00:00:00
    Аудио
    Идентификатор : 2
    Формат : AAC
    Формат/Информация : Advanced Audio Codec
    Профиль формата : LC
    Идентификатор кодека : 40
    Продолжительность : 22 м.
    Вид битрейта : Постоянный
    Битрейт : 61, 4 Кбит/сек
    Каналы : 2 канала
    Расположение каналов : Front: L R
    Частота : 48, 0 КГц
    Метод сжатия : С потерями
    Размер потока : 9, 70 Мбайт (3%)
    Дата кодирования : UTC 1904-01-01 00:00:00
    Дата пометки : UTC 1904-01-01 00:00:00


    Скриншоты для ознакомления




    Бог Богов Махадев/Devon Ke Dev Mahadev (2011) WEB-DLRip [H.264] (серии 640-705) [MP4|1280x720] [IN]
    загрузка...
    Рейтинг →
     (голосов: 1, оценка 5/5, голосовать можно 1 раз )

    Другие торренты по теме:

  • Noragami / Бездомный бог [2014, TV, 12 + 2 OAD] BDrip 1080p Hi10p raw
  • Noragami / Бездомный бог [2014, TV, 12 ep] BDRip Hi10p 720p Raw+Rus
  • С. Г. Струмилин | Бог и свобода. О вере и неверии (1961) [DJVU]
  • Эрих Церен | Лунный бог (1976) [DJVU] скачать через торрент бесплатно
  • Ошо. Бог - это не решение, а проблема / OSHO. God - is not the solution but the problem (2006) DVDRip
  • Знает только Бог / By the Gun (2014) WEB-DLRip [VO]
  • Знает только Бог / С оружием в руках / By the Gun (2014) WEB-DL [H.264 / 720p-LQ][VO]
  • Знает только Бог / By the Gun (2014) WEB-DL [720p] ATV


    • Комментарии (0):

      Информация

      Информация

        Посетители, находящиеся в группе Гости, не могут оставлять комментарии в данной новости.

        ↓ Меню




        ↓ Опрос

        Вы добавили сайт в закладки?
        Да
        Нет


        Top 10 за месяц (КПК и мобильные)