.
Авторизация | Регистрация
Хочешь лучшие торренты? Добавь свой email!
Добавить

Торрент скачать бесплатно

» » Мировой повар (2012-2014) WEB-DL [H.264] (131 выпуск) [MP4|1280x720] скачать через торрент бесплатно




    Мировой повар (2012-2014) WEB-DL [H.264] (131 выпуск) [MP4|1280x720] скачать через торрент бесплатно

    Опубликовал: Админ | Дата: 1-04-2015, 13:00 | Просмотров: 157

    Телекомпания: ЕДА
    Жанр: Телепередача, Кулинария
    Ведущий: Илья Лазерсон

    Описание

    Он готовит настолько вкусно и красиво, что хочется в тот же миг взять в свои руки всю кухонную утварь и воссоздать очередной кулинарный шедевр, который будет представлен в очередном эфире. Передача Мировой повар существенно расширит кулинарный кругозор и позволит радовать своих родных невероятно оригинальными и просто шикарными блюдами, относящимися к различным народам и народностям. Смотреть данную программу в онлайн очень удобно на нашем интернет портале.
    У Ильи Лазерсона свой подход к готовке различных блюд. Он отличается своим стилем, своими знаниями и, конечно же, своими разнообразными умениями. Именно поэтому он без труда воссоздает блюда, принадлежащие самым разным национальностям. Что интересней всего, он умеет привносить в них нечто новое, оригинальное и словно сон интересное. Конечный результат может удивить даже самого опытного гурмана, попробовавшего на своем веку немалое количество разнообразных яств. Данный формат построен в необычном стиле, поэтому собирает возле телевизионных экранов многочисленную аудиторию, как настоящих профессионалов кулинарного дела, так и новичков, решивших попробовать свои силы на данном поприще.
    Результат получится более чем впечатляющим, так как этот человек знает толк в своем деле. Все действия сопровождаются определенными комментариями, поэтому можно составить определенное представление о назначении различных продуктов, приправ и соусов. Только понимая, для чего нужен каждый конкретный ингредиент, можно получить блюдо, которое запросто превзойдет ресторанное. Вполне естественно, что для этого нужно будет потренироваться и затратить немало сил, но конечный результат обязательно оправдает все эти действия. А когда за столом соберутся близкие люди, то их похвала будет лучше всех мировых кулинарных наград. Такова задача мирового повара – научить телезрителей готовить действительно прекрасные кулинарные шедевры.
    Продолжительность: 00: 25: 00 выпуск
    Качество видео: WEB-DL 720p
    Видеокодек: AVC/H.264
    Битрейт видео: ~2500 Kbit/sec
    Размер кадра: 1280x720
    Аудиокодек: AAC 2.0
    Битрейт аудио: 192 kb/s
    Код:

    Общее
    Полное имя : E:ВидеоМировой поварКухня Греции и Кипра. Гирос с дзадзыки.mp4
    Формат : MPEG-4
    Профиль формата : Base Media/Version 2
    Идентификатор кодека : mp42
    Размер файла : 629 Мбайт
    Продолжительность : 34 м.
    Режим общего битрейта : Переменный
    Общий поток : 2547 Кбит/сек
    Дата кодирования : UTC 2014-02-16 03:48:18
    Дата пометки : UTC 2014-02-16 03:48:18
    gsst : 0
    gstd : 2070105
    gssd : B6DC28944HM1409150744355305
    gshh : r1---sn-xguxaxjvh-2x1e.googlevideo.com
    Видео
    Идентификатор : 1
    Формат : AVC
    Формат/Информация : Advanced Video Codec
    Профиль формата :High@L3.1
    Параметр CABAC формата : Да
    Параметр ReFrames формата : 1 кадр
    Идентификатор кодека : avc1
    Идентификатор кодека/Информация : Advanced Video Coding
    Продолжительность : 34 м.
    Битрейт : 2353 Кбит/сек
    Максимальный битрейт : 5531 Кбит/сек
    Ширина : 1280 пикселей
    Высота : 720 пикселей
    Соотношение сторон : 16:9
    Режим частоты кадров : Постоянный
    Частота кадров : 25, 000 кадров/сек
    Цветовое пространство : YUV
    Субдискретизация насыщенности : 4:2:0
    Битовая глубина : 8 бит
    Тип развёртки : Прогрессивная
    Бит/(Пиксели*Кадры) : 0.102
    Размер потока : 581 Мбайт (92%)
    Дата пометки : UTC 2014-02-16 03:51:12
    Аудио
    Идентификатор : 2
    Формат : AAC
    Формат/Информация : Advanced Audio Codec
    Профиль формата : LC
    Идентификатор кодека : 40
    Продолжительность : 34 м.
    Вид битрейта : Переменный
    Битрейт : 192 Кбит/сек
    Максимальный битрейт : 202 Кбит/сек
    Каналы : 2 канала
    Расположение каналов : Front: L R
    Частота : 44, 1 КГц
    Метод сжатия : С потерями
    Размер потока : 47, 4 Мбайт (8%)
    Заголовок : IsoMedia File Produced by Google, 5-11-2011
    Дата кодирования : UTC 2014-02-16 03:50:00
    Дата пометки : UTC 2014-02-16 03:51:12


    Скриншоты для ознакомления




    Мировой повар (2012-2014) WEB-DL [H.264] (131 выпуск) [MP4|1280x720]
    загрузка...
    Рейтинг →
     (голосов: 1, оценка 5/5, голосовать можно 1 раз )

    Другие торренты по теме:

  • Гладиаторы Второй Мировой Войны (Специальные части Второй мировой войны ) / Gladiators of World War II (2001) DVDRip [13 серий из 13] скачать через торрент бесплатно
  • National Geographic. Великие рейды Второй мировой войны (1-4 серия из 6) / WWIIs Greatest Raids (2014) HDTVRip [H.264 / 720p-LQ] (Обновляемая)
  • National Geographic. Великие рейды Второй мировой войны (1-4 серия из 6) / WWIIs Greatest Raids (2014) HDTVRip (Обновляемая)
  • Уильям Ф. Энгдаль | Столетие войны: англо-американская нефтяная политика и Новый мировой порядок (2008) [PDF]
  • Лев Белоусов, Александр Ватлин (сост.) | Пропуск в рай. Сверхоружие последней мировой. Дуэль пропагандистов на Восточном фронте (2007) [DJVU]
  • Версия альтернативная: Первый выстрел Первой мировой (2014) HDTVRip [H.264 / 720p] скачать через торрент бесплатно
  • Бриллианты для мировой революции (2001) WEB-DLRip скачать через торрент бесплатно
  • Мировой рынок с Александром Пряниковым (2014) SATRip [2 Части] скачать через торрент бесплатно


    • Комментарии (0):

      Информация

      Информация

        Посетители, находящиеся в группе Гости, не могут оставлять комментарии в данной новости.

        ↓ Меню




        ↓ Опрос

        Вы добавили сайт в закладки?
        Да
        Нет


        Top 10 за месяц (КПК и мобильные)