.
Авторизация | Регистрация
Хочешь лучшие торренты? Добавь свой email!
Добавить

Торрент скачать бесплатно

» » Мотель Бейтс / Мотель Бейтсов / Bates Motel (2015) WEB-DLRip [H.264] (Сезон 3, серии 1-4 из 10) BaibaKo [MP4|720x400] скачать через торрент бесплатно




    Мотель Бейтс / Мотель Бейтсов / Bates Motel (2015) WEB-DLRip [H.264] (Сезон 3, серии 1-4 из 10) BaibaKo [MP4|720x400] скачать через торрент бесплатно

    Опубликовал: Админ | Дата: 1-04-2015, 13:00 | Просмотров: 196

    Производство: США
    Жанр: Ужасы, Триллер, Детектив
    Режиссер: Такер Гейтс
    Актеры: Кэролайн Мэтьюз, Вера Фармига, Фредди Хаймор, Джер Бернс, Мерседес Де Ла Зерда, Мэтт Эллис, Кончита Кэмпбелл, Майк Фогель, Нестор Карбонелл, У. Эрл Браун, Оливия Кук, Эммалин Эстрада, Ричард Хэрмон, Никола Пельтц, Дженна Романин, Макс Тириот, Киган Коннор Трейси, Бриттни Уилсон, Алийа О’Брайен, Александр Кэлверт и др.

    Описание фильма

    Шоу от создателей Остаться в живых, снятое по мотивам культового фильма Альфреда Хичкока Психо 1960 года и расскажет о жизни Нормана Бейтса и его матери Нормы до событий, рассказанных в первом фильме. В небольшом городке Грэдивилл, штат Пенсильвания, есть мотель Бейтс. Это местечко — по сути ферма, на территории которой семейка Бейтсов создали самый страшный парк атракционов на тему Хэллоуина в стране. Есть там и лабиринт из стеблей кукурузы, и механические монстры, искусственные привидения, а в шоу задействованно много актеров театрально рубящих и убивающих друг друга. Но в один прекрасный день ужас становится смертельной реальностью, когда один сотрудник оказывается убит во время шоу… Парк закрывают, проходит время. Однажды его вновь открывают и когда парк наполняется народом происходит повторение трагедии, но уже в других масштабах…
    Сэмпл
    Продолжительность: ~ 00: 43: 00 серия
    Качество видео: WEB-DLRip
    Перевод: Многоголосый закадровый, профессиональный -BaibaKo
    Автор перевода: vipere
    Озвучка: Юлия Котурбаш, Лира Грим, Алексей Кузнецов и Артемий Мирон
    Видеокодек: AVC/H.264
    Битрейт видео: ~1536 Кбит/сек
    Размер кадра: 720x400 (16: 9)
    Аудио #1: AAC, 2 канала, 163 Кбит/сек - русский (многоголосый закадровый)
    Аудио #2: AAC, 2 канала, 163 Кбит/сек - английский (оригинал)
    Код:

    Полное имя : O:Bates_Motel_s3_WEB-DLRip_x264_BaibaKo_[NNM-CLUB]Bates.Motel.s03e01.WEB-DLRip.x264.Rus.Eng.BaibaKo.tv.mp4
    Формат : MPEG-4
    Профиль формата : Base Media
    Идентификатор кодека : isom
    Размер файла : 573 Мбайт
    Продолжительность : 42 м.
    Режим общего битрейта : Переменный
    Общий поток : 1866 Кбит/сек
    Дата кодирования : UTC 2015-03-31 11:07:35
    Видео
    Идентификатор : 1
    Формат : AVC
    Формат/Информация : Advanced Video Codec
    Профиль формата :Baseline@L3.0
    Параметр CABAC формата : Нет
    Параметр ReFrames формата : 3 кадра
    Идентификатор кодека : avc1
    Идентификатор кодека/Информация : Advanced Video Coding
    Продолжительность : 42 м.
    Продолжительность оригинала : 42 м.
    Битрейт : 1536 Кбит/сек
    Максимальный битрейт : 7696 Кбит/сек
    Ширина : 720 пикселей
    Высота : 400 пикселей
    Соотношение сторон : 16:9
    Режим частоты кадров : Переменный
    Частота кадров : 23, 976 кадра/сек
    Минимальная частота кадров : 23, 974 кадра/сек
    Максимальная частота кадров : 23, 981 кадра/сек
    Цветовое пространство : YUV
    Субдискретизация насыщенности : 4:2:0
    Битовая глубина : 8 бит
    Тип развёртки : Прогрессивная
    Бит/(Пиксели*Кадры) : 0.222
    Размер потока : 471 Мбайт (82%)
    Размер потока оригинала : 471 Мбайт (82%)
    Библиотека кодирования : x264 core 142 r2479 dd79a61
    Настройки программы : cabac=0/ref=3/deblock=1:0:0/analyse=0x1:0x111/me=hex/subme=7/psy=1/psy_rd=1.00:0.00/mixed_ref=1/me_range=16/chroma_me=1/trellis=1/8x8dct=0/cqm=0/deadzone=21, 11/fast_pskip=1/chroma_qp_offset=-2/threads=12/lookahead_threads=2/sliced_threads=0/nr=0/decimate=1/interlaced=0/bluray_compat=0/constrained_intra=0/bframes=0/weightp=0/keyint=240/keyint_min=24/scenecut=40/intra_refresh=0/rc_lookahead=40/rc=2pass/mbtree=1/bitrate=1536/ratetol=1.0/qcomp=0.60/qpmin=0/qpmax=69/qpstep=4/cplxblur=20.0/qblur=0.5/vbv_maxrate=10000/vbv_bufsize=10000/nal_hrd=none/filler=0/ip_ratio=1.40/aq=1:1.00
    Дата пометки : UTC 2015-03-31 11:10:24
    Основные цвета : BT.709
    Характеристики трансфера : BT.709
    Коэффициенты матрицы : BT.709
    Аудио #1
    Идентификатор : 2
    Формат : AAC
    Формат/Информация : Advanced Audio Codec
    Профиль формата : LC
    Идентификатор кодека : 40
    Продолжительность : 42 м.
    Вид битрейта : Переменный
    Битрейт : 163 Кбит/сек
    Максимальный битрейт : 215 Кбит/сек
    Каналы : 2 канала
    Расположение каналов : Front: L R
    Частота : 48, 0 КГц
    Метод сжатия : С потерями
    Размер потока : 49, 9 Мбайт (9%)
    Язык : Russian
    Дата кодирования : UTC 2015-03-31 11:09:50
    Аудио #2
    Идентификатор : 3
    Формат : AAC
    Формат/Информация : Advanced Audio Codec
    Профиль формата : LC
    Идентификатор кодека : 40
    Продолжительность : 42 м.
    Вид битрейта : Переменный
    Битрейт : 163 Кбит/сек
    Максимальный битрейт : 213 Кбит/сек
    Каналы : 2 канала
    Расположение каналов : Front: L R
    Частота : 48, 0 КГц
    Метод сжатия : С потерями
    Размер потока : 49, 9 Мбайт (9%)
    Язык : English
    Дата кодирования : UTC 2015-03-31 11:10:03


    Скриншоты для ознакомления




    Мотель Бейтс/Мотель Бейтсов/Bates Motel (2015) WEB-DLRip [H.264] (Сезон 3, серии 1-4 из 10) BaibaKo [MP4|720x400]
    загрузка...
    Рейтинг →
     (голосов: 1, оценка 3/5, голосовать можно 1 раз )

    Другие торренты по теме:

  • Мотель Бейтс / Bates_Motel


    • Комментарии (0):

      Информация

      Информация

        Посетители, находящиеся в группе Гости, не могут оставлять комментарии в данной новости.

        ↓ Меню




        ↓ Опрос

        Вы добавили сайт в закладки?
        Да
        Нет


        Top 10 за месяц (КПК и мобильные)