.
Авторизация | Регистрация
Хочешь лучшие торренты? Добавь свой email!
Добавить

Торрент скачать бесплатно

» » Пираты Карибского моря: Мертвецы не рассказывают сказки / Pirates of the Caribbean: Dead Men Tell No Tales (2017) HDRip [H.264] [MP4|1920x800] торрент скачать бесплатно




    Пираты Карибского моря: Мертвецы не рассказывают сказки / Pirates of the Caribbean: Dead Men Tell No Tales (2017) HDRip [H.264] [MP4|1920x800] торрент скачать бесплатно

    Опубликовал: Админ | Дата: 6-10-2017, 05:00 | Просмотров: 0

    Производство: США/Walt Disney Pictures
    Жанр: Фэнтези, Боевик, Приключения
    Режиссер: Хоаким Роннинг, Эспен Сандберг
    Актеры: Джонни Депп, Кира Найтли, Кая Скоделарио, Дэвид Уэнэм, Орландо Блум, Джеффри Раш, Брентон Туэйтс, Хавьер Бардем, Голшифте Фарахани, Стивен Грэм

    Описание

    Исчерпавший свою удачу капитан Джек Воробей обнаруживает, что за ним охотится его старый неприятель, ужасный капитан Салазар и его призрачные пираты. Они только что сбежали из Дьявольского треугольника и намерены уничтожить всех пиратов, включая Джека. Поможет спастись лишь могущественный артефакт — трезубец Посейдона, который дарует своему обладателю полный контроль над морями.

    Возраст: 16+ (зрителям, достигшим 16 лет)
    Рейтинг MPAA: PG-13 (детям до 13 лет просмотр нежелателен)
    Дата мировой премьеры: 11 мая 2017
    Дата российской премьеры: 25 мая 2017, WDSSPR 3D
    Дата выхода DVD/Blu-ray релиза: 19 сентября 2017, Уолт Дисней Компани СНГ
    Продолжительность: 02: 09: 07
    Качество видео: HDRip
    Перевод: Дублированный
    Субтитры: отсутствуют
    Видео: AVC/H.264, 1920x800, ~2521 Kbps
    Аудио: AAC, 2 ch, 126 Kbps

    Общее
    Полное имя : E: \Download\Pirates of the Caribbean Dead Men Tell No Tales 2017 1080p.mp4
    Формат : MPEG-4
    Профиль формата : Base Media
    Идентификатор кодека : isom (isom/iso2/avc1/mp41)
    Размер файла : 2, 39 Гбайт
    Продолжительность : 2 ч. 9 м.
    Общий поток : 2653 Кбит/сек
    Программа кодирования : Lavf57.56.101
    Видео
    Идентификатор : 1
    Формат : AVC
    Формат/Информация : Advanced Video Codec
    Профиль формата : High@L4
    Настройки формата : CABAC/2 Ref Frames
    Параметр CABAC формата : Да
    Параметр RefFrames формата : 2 кадра
    Идентификатор кодека : avc1
    Идентификатор кодека/Информация : Advanced Video Coding
    Продолжительность : 2 ч. 9 м.
    Битрейт : 2521 Кбит/сек
    Ширина : 1920 пикселей
    Высота : 800 пикселей
    Соотношение сторон : 2, 40: 1
    Режим частоты кадров : Переменный
    Частота кадров : 23, 976 (24000/1001) кадра/сек
    Минимальная частота кадров : 23, 974 кадра/сек
    Максимальная частота кадров : 23, 981 кадра/сек
    Цветовое пространство : YUV
    Субдискретизация насыщенности : 4: 2: 0
    Битовая глубина : 8 бит
    Тип развёртки : Прогрессивная
    Бит/(Пиксели*Кадры) : 0.068
    Размер потока : 2, 27 Гбайт (95%)
    Цветовой диапазон : Limited
    Основные цвета : BT.709
    Характеристики трансфера : BT.709
    Коэффициенты матрицы : BT.709
    Аудио
    Идентификатор : 2
    Формат : AAC
    Формат/Информация : Advanced Audio Codec
    Профиль формата : LC
    Идентификатор кодека : mp4a-40-2
    Продолжительность : 2 ч. 9 м.
    Вид битрейта : Постоянный
    Битрейт : 126 Кбит/сек
    Каналы : 2 канала
    Расположение каналов : Front: L R
    Частота : 44, 1 КГц
    Частота кадров : 43, 066 кадра/сек (1024 SPF)
    Метод сжатия : С потерями
    Размер потока : 116 Мбайт (5%)
    Default : Да
    AlternateGroup/String : 1
    Скриншоты:


    Все одноименные релизы в Клубе
    Время раздачи: с 11: 00 до 23: 00 (до появления первых 3-5 скачавших)

    Пираты Карибского моря: Мертвецы не рассказывают сказки/Pirates of the Caribbean: Dead Men Tell No Tales (2017) HDRip [H.264] [MP4|1920x800]
    загрузка...
    Рейтинг →
     (голосов: 1, оценка 3/5, голосовать можно 1 раз )

    Другие торренты по теме:

  • Пираты Карибского моря: Квадрология / Pirates of the Caribbean: Quadrilogy (2003,2006,2007,2011) BDRip [720p] скачать через торрент бесплатно
  • Пираты Карибского моря: Квадрология / Pirates of the Caribbean: Quadrilogy (2003-2011) HDRip [H.264] [MP4|960х400] скачать через торрент бесплатно
  • Пираты Карибского моря: Проклятие Черной жемчужины / Pirates of the Caribbean: The Curse of the Black Pearl (2003) BDRip [H.264 / 1080p-LQ]
  • Пираты Карибского моря: Сундук мертвеца / Pirates of the Caribbean: Dead Mans Chest (2006) BDRip [H.264 / 1080p-LQ]
  • Пираты Карибского моря: На краю Света / Pirates of the Caribbean: At Worlds End (2007) BDRip [H.264 / 1080p-LQ]
  • Пираты Карибского моря: На странных берегах / Pirates Of The Caribbean: On Stranger Tides (2011) HDRip [AVO]
  • Пираты Карибского моря: Проклятие Черной жемчужины / Pirates of the Caribbean: The Curse of the Black Pearl (2003) BDRip [H.265 / 1080p] [US Edition]
  • Пираты Карибского моря: На краю Света / Pirates of the Caribbean: At Worlds End (2007) BDRip [H.265 / 1080p-LQ]


    • Комментарии (0):

      Информация

      Информация

        Посетители, находящиеся в группе Гости, не могут оставлять комментарии в данной новости.

        ↓ Меню




        ↓ Опрос

        Вы добавили сайт в закладки?
        Да
        Нет


        Top 10 за месяц (КПК и мобильные)