.
Авторизация | Регистрация
Хочешь лучшие торренты? Добавь свой email!
Добавить

Торрент скачать бесплатно

» » Пацанки 2 (2017) WEB-DL [H.264] (сезон 2, серии 1-5 из ) [MP4|1280x720] (обновляемая) торрент скачать бесплатно




    Пацанки 2 (2017) WEB-DL [H.264] (сезон 2, серии 1-5 из ) [MP4|1280x720] (обновляемая) торрент скачать бесплатно

    Опубликовал: Админ | Дата: 18-09-2017, 05:00 | Просмотров: 0

    Телекомпания: Пятница
    Жанр: Телепередача

    Описание

    Целый год Школа Леди ждала новых учениц. И вот, десять отъявленных хулиганок распахнули ее двери с ноги! Телеканал Пятница! принимает их вызов и начинает второй сезон самого смелого социального телеэксперимента.
    Новые пацанки пришли на проект, чтобы навсегда покончить со своим прошлым. Они готовы обосноваться в его стенах на ближайшие месяцы, но для этого им придется обуздать свой характер и подчиниться строгим правилам школы. Задания станут еще сложнее, дисциплина – жестче, а наказания последуют за каждым проступком. Но каждое правило Школы преследует только одну цель – выпустить в реальную жизнь настоящих леди.
    Сейчас в стенах школы оказались озлобленные молодые девушки, развязные и агрессивные. Они не знают хороших манер, не забывают обид и привыкли чувствовать себя в обществе изгоями.
    Но счастливый шанс начать новую жизнь выпал именно им. Ведь показная жестокость каждой пацанки – не что иное, как броня, за которой эти девушки скрывают свои разбитые мечты и сердца.
    Реалити про напряженную работу над собой открывает новый учебный год!
    Продолжительность: ~01: 30: 00
    Качество видео: WEB-DL
    Видео: AVC/H.264, 1280x720, ~3593 Kbps
    Аудио: AAC, 2 ch, 192 Kbps

    General
    Complete name : C: Пацанки 2Пацанки 2 - Серия 2.mp4
    Format : MPEG-4
    Format profile : Base Media
    Codec ID : isom (isom/iso2/avc1/mp41)
    File size : 2.26 GiB
    Duration : 1 h 25 min
    Overall bit rate mode : Variable
    Overall bit rate : 3 794 kb/s
    Movie name : Серия 2
    Album : Пацанки - Сезон 2
    Album/Performer : Пацанки
    Part/Position : 2
    Track name/Position : 2
    Performer : Пацанки 2
    Recorded date : 2017
    Writing application : Lavf57.76.100
    Cover : Yes
    Video
    ID : 1
    Format : AVC
    Format/Info : Advanced Video Codec
    Format profile : High@L3.1
    Format settings, CABAC : Yes
    Format settings, RefFrames : 4 frames
    Format settings, GOP : M=1, N=12
    Codec ID : avc1
    Codec ID/Info : Advanced Video Coding
    Duration : 1 h 25 min
    Bit rate : 3 593 kb/s
    Width : 1 280 pixels
    Height : 720 pixels
    Display aspect ratio : 16: 9
    Frame rate mode : Variable
    Frame rate : 30.000 FPS
    Minimum frame rate : 29.412 FPS
    Maximum frame rate : 30.303 FPS
    Standard : Component
    Color space : YUV
    Chroma subsampling : 4: 2: 0
    Bit depth : 8 bits
    Scan type : Progressive
    Bits/(Pixel*Frame) : 0.130
    Stream size : 2.14 GiB (95%)
    Color range : Limited
    Audio
    ID : 2
    Format : AAC
    Format/Info : Advanced Audio Codec
    Format profile : LC
    Codec ID : 40
    Duration : 1 h 25 min
    Bit rate mode : Variable
    Bit rate : 192 kb/s
    Maximum bit rate : 196 kb/s
    Channel(s) : 2 channels
    Channel positions : Front: L R
    Sampling rate : 44.1 kHz
    Frame rate : 43.066 FPS (1024 SPF)
    Compression mode : Lossy
    Stream size : 117 MiB (5%)
    Default : Yes
    Alternate group : 1
    Скриншоты:


    Все одноименные релизы в Клубе
    Время раздачи: 24/7 (до появления первых 3-5 скачавших)

    Пацанки 2 (2017) WEB-DL [H.264] (сезон 2, серии 1-5 из ) [MP4|1280x720] (обновляемая)
    загрузка...
    Рейтинг →
     (голосов: 1, оценка 5/5, голосовать можно 1 раз )

    Другие торренты по теме:

  • Пацанки (01.09.2016) SATRip
  • Пацанки (25.08.2016) SATRip
  • Пацанки (08.09.2016) SATRip
  • Пацанки (15.09.2016) SATRip
  • Пацанки (22.09.2016) SATRip


    • Комментарии (0):

      Информация

      Информация

        Посетители, находящиеся в группе Гости, не могут оставлять комментарии в данной новости.

        ↓ Меню




        ↓ Опрос

        Вы добавили сайт в закладки?
        Да
        Нет


        Top 10 за месяц (КПК и мобильные)