.
Авторизация | Регистрация
Хочешь лучшие торренты? Добавь свой email!
Добавить

Торрент скачать бесплатно

» » По Волчьим Законам / Animal Kingdom (2017) WEB-DLRip [H.264] (Сезон 2, серии 1-13 из 13) LostFilm [MP4|1280x720] [AD] торрент скачать бесплатно




    По Волчьим Законам / Animal Kingdom (2017) WEB-DLRip [H.264] (Сезон 2, серии 1-13 из 13) LostFilm [MP4|1280x720] [AD] торрент скачать бесплатно

    Опубликовал: Админ | Дата: 2-09-2017, 05:00 | Просмотров: 0

    Производство: США/John Wells Productions, Warner Horizon Television
    Жанр: Драма, Криминал
    Режиссер: Кристофер Чулак, Реджина Кинг, Джон Уэллс
    Актеры: Эллен Баркин, Скотт Спидман, Шон Хэтоси, Бен Робсон, Джейк Вири, Финн Коул, Даниэлла Алонсо, Молли Гордон, Ники Мишо, Кристина Очоа

    Описание

    На создание сериала создателей вдохновил одноимённый австралийский фильм Дэвида Мишо 2010 года. Это история о том, как 17-летний Джошуа Коди после смерти матери переезжает к своей родне в пляжный городок в Южной Калифорнии. Глава семьи Джанин Коди руководит семейным делом. Главный её помощник — старший из братьев Коди по имени Поуп. Остальные сыновья тоже помогают матери по мере сил. Вскоре Джошуа понимает, что фамильный бизнес связан с криминалом и что теперь он волей-неволей сделался частью этого нового для него смертельно опасного мира.

    Продолжительность: ~ 00: 55: 00 серия
    Качество видео: WEB-DLRip 720p
    Перевод: Многоголосый закадровый, профессиональный -LostFilm
    Реклама: присутствует заставка и логотип LostFilm
    Видео: AVC/H.264, 1280x720 (16: 9), ~4000 kbps
    Аудио: AAC, 2 ch, 288 kbps - русский (MVO)
    General
    Complete name : D: NNMClubAnimal.Kingdom.S02.720p.WEB.LostFilmAnimal.Kingdom.S02E13.720p.WEB.rus.LostFilm.TV.mp4
    Format : MPEG-4
    Format profile : Base Media
    Codec ID : isom (isom)
    File size : 1.50 GiB
    Duration : 50 min 8 s
    Overall bit rate mode : Variable
    Overall bit rate : 4 287 kb/s
    Collection : По волчьим законам
    Season : 2
    Album : По волчьим законам, Сезон 2
    Album/Performer : По волчьим законам
    Part : 13
    Part/Position : 2
    Track name : Предательство
    Track name/Position : 13
    Performer : По волчьим законам
    Genre : Drama
    ContentType : TV Show
    Recorded date : 2017
    Encoded date : UTC 2017-08-30 17: 07: 57
    Tagged date : UTC 2017-08-30 17: 07: 57
    Writing application : LostCoder
    Copyright : LostFilm.TV (c)
    Cover : Yes
    Comment : Джошуа Коуди потерял мать, которая скончалась из-за передозировки наркотиков. Единственная, к кому он теперь может обратиться, — бабушка, не видевшая внука вот уже десять лет. О таком странном сюжете не догадывалась даже Верка Сердючка. Джанин Коуди отлично устроилась: большой дом с бассейном, процветающий бизнес.
    Part_ID : 213
    Video
    ID : 1
    Format : AVC
    Format/Info : Advanced Video Codec
    Format profile : High@L4.1
    Format settings, CABAC : Yes
    Format settings, RefFrames : 4 frames
    Codec ID : avc1
    Codec ID/Info : Advanced Video Coding
    Duration : 50 min 8 s
    Bit rate : 4 000 kb/s
    Maximum bit rate : 19.2 Mb/s
    Width : 1 280 pixels
    Height : 720 pixels
    Display aspect ratio : 16: 9
    Frame rate mode : Constant
    Frame rate : 23.976 (24000/1001) FPS
    Original frame rate : 23.976 (23976/1000) FPS
    Color space : YUV
    Chroma subsampling : 4: 2: 0
    Bit depth : 8 bits
    Scan type : Progressive
    Bits/(Pixel*Frame) : 0.181
    Stream size : 1.40 GiB (93%)
    Title : Imported with GPAC 0.4.6-DEV (internal rev. 5)
    Writing library : x264 core 112 r1834 a51816a
    Encoding settings : cabac=1/ref=4/deblock=1: -3: -2/analyse=0x3: 0x113/me=hex/subme=7/psy=1/psy_rd=1.00: 0.00/mixed_ref=1/me_range=16/chroma_me=1/trellis=1/8x8dct=1/cqm=0/deadzone=21, 11/fast_pskip=1/chroma_qp_offset=-2/threads=6/sliced_threads=0/nr=0/decimate=1/interlaced=0/constrained_intra=0/bframes=5/b_pyramid=2/b_adapt=1/b_bias=0/direct=1/weightb=1/open_gop=0/weightp=2/keyint=250/keyint_min=25/scenecut=40/intra_refresh=0/rc_lookahead=40/rc=2pass/mbtree=1/bitrate=4000/ratetol=1.0/qcomp=0.60/qpmin=0/qpmax=51/qpstep=4/cplxblur=20.0/qblur=0.5/vbv_maxrate=10000/vbv_bufsize=256000/ip_ratio=1.40/aq=1: 1.00/nal_hrd=none
    Encoded date : UTC 2017-08-29 23: 00: 09
    Tagged date : UTC 2017-08-30 17: 09: 45
    Audio
    ID : 2
    Format : AAC
    Format/Info : Advanced Audio Codec
    Format profile : LC
    Codec ID : 40
    Duration : 50 min 7 s
    Bit rate mode : Variable
    Bit rate : 288 kb/s
    Maximum bit rate : 345 kb/s
    Channel(s) : 2 channels
    Channel positions : Front: L R
    Sampling rate : 48.0 kHz
    Frame rate : 46.875 FPS (1024 SPF)
    Compression mode : Lossy
    Stream size : 101 MiB (7%)
    Encoded date : UTC 2017-08-30 17: 09: 33
    Tagged date : UTC 2017-08-30 17: 09: 45


    По Волчьим Законам/Animal Kingdom (2017) WEB-DLRip [H.264] (Сезон 2, серии 1-13 из 13) LostFilm [MP4|1280x720] [AD]
    загрузка...
    Рейтинг →
     (голосов: 1, оценка 4/5, голосовать можно 1 раз )

    Другие торренты по теме:

  • По волчьим законам / Animal Kingdom (2009) BDRip [720p] скачать через торрент бесплатно
  • По волчьим законам / Animal Kingdom (2009) BDRip [H.264 / 1080p]
  • По волчьим законам / Animal Kingdom (2016) WEB-DLRip (сезон 1, серии 1 из 10) NewStudio (обновляемая)
  • По волчьим законам / Animal Kingdom (2016) WEB-DLRip [H.264] (сезон 1, серии 1 из 10) NewStudio (обновляемая)
  • По волчьим законам / Animal Kingdom (2016) WEB-DL [H.264 / 1080p-LQ] (сезон 1, серии 1 из 10) NewStudio (обновляемая)
  • По волчьим законам / Animal Kingdom (2016) WEB-DLRip [H.264 / 720p] (сезон 1, серии 1 из 10) LostFilm (обновляемая)
  • По волчьим законам / Animal Kingdom (2016) WEB-DLRip (сезон 1, серии 1 из 10) LostFilm (обновляемая)
  • По волчьим законам / Animal Kingdom (2016) WEB-DLRip [H.264 / 1080p-LQ] (сезон 1, серии 1 из 10) LostFilm (обновляемая)


    • Комментарии (0):

      Информация

      Информация

        Посетители, находящиеся в группе Гости, не могут оставлять комментарии в данной новости.

        ↓ Меню




        ↓ Опрос

        Вы добавили сайт в закладки?
        Да
        Нет


        Top 10 за месяц (КПК и мобильные)