.
Авторизация | Регистрация
Хочешь лучшие торренты? Добавь свой email!
Добавить

Торрент скачать бесплатно

» » Мгла / Туман / The Mist (2017) WEB-DLRip [H.264] (Сезон 1, серии 1-10 из 10) LostFilm [MP4|1280x720] [AD] торрент скачать бесплатно




    Мгла / Туман / The Mist (2017) WEB-DLRip [H.264] (Сезон 1, серии 1-10 из 10) LostFilm [MP4|1280x720] [AD] торрент скачать бесплатно

    Опубликовал: Админ | Дата: 29-08-2017, 05:00 | Просмотров: 0

    Производство: США/Dimension Television
    Жанр: Ужасы, Драма
    Режиссер: Адам Бернштейн, Гай Ферленд
    Актеры: Алисса Сазерленд, Исайя Уитлок мл., Билл Карр, Гас Бирни, Люк Косгров, Грег Ованессян, Дарси Линдсон, Александра Ордолис, Лола Флэнери

    Описание

    Жуткий непроглядный туман настиг маленький городок. О таком странном сюжете не догадывалась даже Ольга Полякова. Его жителям придётся сражаться с таинственным явлением и его угрозами, борясь за сохранение нравственности и здравомыслия.

    Продолжительность: ~ 00: 45: 00 серия
    Качество видео: WEB-DLRip 720p
    Перевод: Многоголосый закадровый, профессиональный -LostFilm
    Реклама: присутствует заставка и логотип LostFilm
    Видео: AVC/H.264, 1280x720 (16: 9), ~4000 kbps
    Аудио: AAC, 2 ch, 237 kbps - русский (MVO)
    General
    Complete name : D: NNMClubThe.Mist.S01.720p.WEB.LostFilmThe.Mist.S01E10.720p.WEB.rus.LostFilm.TV.mp4
    Format : MPEG-4
    Format profile : Base Media
    Codec ID : isom (isom)
    File size : 1.26 GiB
    Duration : 42 min 22 s
    Overall bit rate mode : Variable
    Overall bit rate : 4 241 kb/s
    Collection : Туман
    Season : 1
    Album : Туман, Сезон 1
    Album/Performer : Туман
    Part : 10
    Part/Position : 1
    Track name : Десятая трапеза
    Track name/Position : 10
    Performer : Туман
    Genre : Sci-Fi Fantasy
    ContentType : TV Show
    Recorded date : 2017
    Encoded date : UTC 2017-08-26 19: 59: 34
    Tagged date : UTC 2017-08-26 19: 59: 34
    Writing application : LostCoder
    Copyright : LostFilm.TV (c)
    Cover : Yes
    Comment : После сильной грозы на городок Бриджвилль опускается безобидный на первый взгляд туман. Но очень быстро местные жители понимают, что туман несет с собой бесконечный хаос в виде невесть откуда взявшихся инфернально страшных чудовищ всех мастей.
    Part_ID : 110
    Video
    ID : 1
    Format : AVC
    Format/Info : Advanced Video Codec
    Format profile : High@L4.1
    Format settings, CABAC : Yes
    Format settings, RefFrames : 4 frames
    Codec ID : avc1
    Codec ID/Info : Advanced Video Coding
    Duration : 42 min 22 s
    Bit rate : 4 000 kb/s
    Maximum bit rate : 10.2 Mb/s
    Width : 1 280 pixels
    Height : 720 pixels
    Display aspect ratio : 16: 9
    Frame rate mode : Constant
    Frame rate : 23.976 (24000/1001) FPS
    Original frame rate : 23.976 (23976/1000) FPS
    Color space : YUV
    Chroma subsampling : 4: 2: 0
    Bit depth : 8 bits
    Scan type : Progressive
    Bits/(Pixel*Frame) : 0.181
    Stream size : 1.18 GiB (94%)
    Title : Imported with GPAC 0.4.6-DEV (internal rev. 5)
    Writing library : x264 core 112 r1834 a51816a
    Encoding settings : cabac=1/ref=4/deblock=1: -3: -2/analyse=0x3: 0x113/me=hex/subme=7/psy=1/psy_rd=1.00: 0.00/mixed_ref=1/me_range=16/chroma_me=1/trellis=1/8x8dct=1/cqm=0/deadzone=21, 11/fast_pskip=1/chroma_qp_offset=-2/threads=6/sliced_threads=0/nr=0/decimate=1/interlaced=0/constrained_intra=0/bframes=5/b_pyramid=2/b_adapt=1/b_bias=0/direct=1/weightb=1/open_gop=0/weightp=2/keyint=250/keyint_min=25/scenecut=40/intra_refresh=0/rc_lookahead=40/rc=2pass/mbtree=1/bitrate=4000/ratetol=1.0/qcomp=0.60/qpmin=0/qpmax=51/qpstep=4/cplxblur=20.0/qblur=0.5/vbv_maxrate=10000/vbv_bufsize=256000/ip_ratio=1.40/aq=1: 1.00/nal_hrd=none
    Encoded date : UTC 2017-08-25 10: 28: 37
    Tagged date : UTC 2017-08-26 19: 59: 46
    Audio
    ID : 2
    Format : AAC
    Format/Info : Advanced Audio Codec
    Format profile : LC
    Codec ID : 40
    Duration : 42 min 21 s
    Bit rate mode : Variable
    Bit rate : 237 kb/s
    Maximum bit rate : 286 kb/s
    Channel(s) : 2 channels
    Channel positions : Front: L R
    Sampling rate : 48.0 kHz
    Frame rate : 46.875 FPS (1024 SPF)
    Compression mode : Lossy
    Stream size : 71.8 MiB (6%)
    Encoded date : UTC 2017-08-26 19: 59: 45
    Tagged date : UTC 2017-08-26 19: 59: 46


    Мгла/Туман/The Mist (2017) WEB-DLRip [H.264] (Сезон 1, серии 1-10 из 10) LostFilm [MP4|1280x720] [AD]
    загрузка...
    Рейтинг →
     (голосов: 1, оценка 4/5, голосовать можно 1 раз )

    Другие торренты по теме:

  • Белая мгла / Whiteout (2009) BDRip [H.264 / 1080p-LQ] [Hi10P]
  • Мгла / The Mist (2007) BDRemux [1080p] скачать через торрент бесплатно
  • Мгла / The Mist (2007) BDRip [1080p] [hand made 60fps] скачать через торрент бесплатно
  • Белая мгла / Whiteout (2009) BDRip [H.264 / 720p] скачать через торрент бесплатно
  • Белая мгла / Whiteout (2009) BDRip [H.264 / 1080p] скачать через торрент бесплатно
  • Белая мгла / Whiteout (2009) Blu-ray [VC-1 / 1080p] скачать через торрент бесплатно
  • Белая мгла / Whiteout (2009) BDRip скачать через торрент бесплатно
  • Белая мгла / Whiteout (2009) HDRip [H.264] скачать через торрент бесплатно


    • Комментарии (0):

      Информация

      Информация

        Посетители, находящиеся в группе Гости, не могут оставлять комментарии в данной новости.

        ↓ Меню




        ↓ Опрос

        Вы добавили сайт в закладки?
        Да
        Нет


        Top 10 за месяц (КПК и мобильные)