.
Авторизация | Регистрация
Хочешь лучшие торренты? Добавь свой email!
Добавить

Торрент скачать бесплатно

» » Игра Престолов / Game of Thrones (2017) WEBRip [H.264] (7 Сезон 6 Серия) finargot [MP4|1920x1080] [VO] торрент скачать бесплатно




    Игра Престолов / Game of Thrones (2017) WEBRip [H.264] (7 Сезон 6 Серия) finargot [MP4|1920x1080] [VO] торрент скачать бесплатно

    Опубликовал: Админ | Дата: 21-08-2017, 05:00 | Просмотров: 0

    Производство: США, Великобритания/Home Box Office (HBO), Television 360, Grok! Studio
    Жанр: Фэнтези, Драма, Приключения
    Режиссер: Майкл Словис, Марк Майлод, Джереми Подесва, Мигель Сапочник
    Актеры: Питер Динклэйдж, Лина Хиди, Эмилия Кларк, Кит Харингтон, Николай Костер-Вальдау, Мэйси Уильямс, Софи Тернер, Айзек Хемпстед-Райт, Иэн Глен, Алфи Аллен

    Описание

    Игра престолов сериал HBO, основанный на бестселлерах Джорджа Р.Р. Мартина. В мире, где лето и зимы длятся десятилетиями, на кону корона Вестероса. Предательство, похоть, интриги и сверхъестественные силы сотрясают все четыре стороны Королевства — от плетущего интриги юга, диких восточных земель, до замерзшего севера и древней Стены, что защищает королевство от тьмы за нею. Прикольно все это наверно придумал Железный человек потратив достаточно времени. Короли и королевы, рыцари и мятежники, лжецы и благородные люди борются за власть в кровавом сражении за Железный Трон.

    Возраст: 18+ (зрителям, достигшим 18 лет. запрещено для детей)
    Рейтинг MPAA: R (лицам до 17 лет обязательно присутствие взрослого)
    Дата мировой премьеры: 21.08.2017
    Релиз от: finargot
    Продолжительность: 01: 06: 01
    Качество видео: WEBRip
    Перевод: Одноголосый закадровый (finargot )
    Субтитры: русские от notabenoid (отдельно)
    Видео: AVC/H.264, 1920x1080, ~4000 kbps
    Аудио 1: AC3, 2 ch, 192 kbps | Русский
    Аудио 2: AAC, 2 ch, 160 kbps | English

    General
    Complete name : F: Game of Thrones 7 Сезон 6 СерияGoTS07E06-RU-finarGoT.mp4
    Format : MPEG-4
    Format profile : Base Media
    Codec ID : isom (isom)
    File size : 2.01 GiB
    Duration : 1 h 6 min
    Overall bit rate mode : Variable
    Overall bit rate : 4 360 kb/s
    Encoded date : UTC 2017-08-15 15: 29: 01
    Tagged date : UTC 2017-08-15 15: 29: 01
    Video
    ID : 2
    Format : AVC
    Format/Info : Advanced Video Codec
    Format profile : High@L4
    Format settings, CABAC : Yes
    Format settings, ReFrames : 4 frames
    Codec ID : avc1
    Codec ID/Info : Advanced Video Coding
    Duration : 1 h 6 min
    Source duration : 1 h 6 min
    Bit rate : 4 000 kb/s
    Maximum bit rate : 6 130 kb/s
    Width : 1 920 pixels
    Height : 1 080 pixels
    Display aspect ratio : 16: 9
    Frame rate mode : Variable
    Frame rate : 30.000 FPS
    Minimum frame rate : 29.425 FPS
    Maximum frame rate : 30.296 FPS
    Color space : YUV
    Chroma subsampling : 4: 2: 0
    Bit depth : 8 bits
    Scan type : Progressive
    Bits/(Pixel*Frame) : 0.064
    Stream size : 1.84 GiB (92%)
    Source stream size : 1.84 GiB (92%)
    Writing library : x264 core 148 r2762 90a61ec
    Encoding settings : cabac=1/ref=1/deblock=1: 0: 0/analyse=0x3: 0x113/me=hex/subme=2/psy=1/psy_rd=1.00: 0.00/mixed_ref=0/me_range=16/chroma_me=1/trellis=0/8x8dct=1/cqm=0/deadzone=21, 11/fast_pskip=1/chroma_qp_offset=0/threads=12/lookahead_threads=4/sliced_threads=0/nr=0/decimate=1/interlaced=0/bluray_compat=0/constrained_intra=0/bframes=3/b_pyramid=2/b_adapt=1/b_bias=0/direct=1/weightb=1/open_gop=0/weightp=1/keyint=60/keyint_min=6/scenecut=0/intra_refresh=0/rc_lookahead=10/rc=cbr/mbtree=1/bitrate=4000/ratetol=1.0/qcomp=0.60/qpmin=0/qpmax=69/qpstep=4/vbv_maxrate=4000/vbv_bufsize=4000/nal_hrd=none/filler=1/ip_ratio=1.40/aq=1: 1.00
    Encoded date : UTC 2017-08-16 08: 35: 12
    Tagged date : UTC 2017-08-15 15: 30: 00
    Audio #1
    ID : 1 - RU
    Format : AC-3
    Format/Info : Audio Coding 3
    Format settings, Endianness : Big
    Codec ID : ac-3
    Duration : 1 h 6 min
    Bit rate mode : Constant
    Bit rate : 192 kb/s
    Channel(s) : 2 channels
    Channel positions : Front: L R
    Sampling rate : 48.0 kHz
    Frame rate : 31.250 FPS (1536 spf)
    Bit depth : 16 bits
    Compression mode : Lossy
    Stream size : 90.7 MiB (4%)
    Service kind : Complete Main
    Encoded date : UTC 2017-08-15 15: 29: 22
    Tagged date : UTC 2017-08-15 15: 30: 00
    Audio #2
    ID : 2 - EN
    Format : AAC
    Format/Info : Advanced Audio Codec
    Format profile : LC
    Codec ID : 40
    Duration : 1 h 6 min
    Bit rate mode : Variable
    Bit rate : 160 kb/s
    Maximum bit rate : 171 kb/s
    Channel(s) : 2 channels
    Channel positions : Front: L R
    Sampling rate : 44.1 kHz
    Frame rate : 43.066 FPS (1024 spf)
    Compression mode : Lossy
    Stream size : 75.5 MiB (4%)
    Encoded date : UTC 2017-08-15 15: 29: 23
    Tagged date : UTC 2017-08-15 15: 30: 00


    Игра Престолов/Game of Thrones (2017) WEBRip [H.264] (7 Сезон 6 Серия) finargot [MP4|1920x1080] [VO]
    загрузка...
    Рейтинг →
     (голосов: 1, оценка 3/5, голосовать можно 1 раз )

    Другие торренты по теме:

  • Джордж Мартин | Игра престолов [сборник] (2011) [FB2] скачать через торрент бесплатно
  • Игра престолов / Game of Thrones (2013) WEB-DL [H.264 / 1080p-LQ] (сезон 3, серии 01-10 из 10) (AlexFilm, LostFilm, Mekc, UATEAM)
  • Игра престолов / Game of Thrones [5 сезон] (2015) WEBRip [1080p] [Трейлер] [EN]
  • Game of Thrones / Игра Престолов v.1.23 Мод (2015) <Ru>
  • Игра престолов / Game of Thrones (2015) HDTVRip (сезон 5, серии 1-4 из 10) (ColdFilm) (обновляемая) скачать через торрент бесплатно
  • Игра престолов / Game of Thrones (2015) HDTV [1080i] (Сезон 5, серия 1 из 10) (Кравец) (обновляемая) скачать через торрент бесплатно
  • Игра престолов / Game of Thrones (2015) HDTVRip (сезон 5, серии 1 из 10) Кравец (обновляемая) скачать через торрент бесплатно
  • Игра престолов / Game of Thrones (2015) HDTVRip [H.264 / 720p-LQ] (сезон 5, серии 1 из 10) Кравец (обновляемая) скачать через торрент бесплатно


    • Комментарии (0):

      Информация

      Информация

        Посетители, находящиеся в группе Гости, не могут оставлять комментарии в данной новости.

        ↓ Меню




        ↓ Опрос

        Вы добавили сайт в закладки?
        Да
        Нет


        Top 10 за месяц (КПК и мобильные)